<?xml version="1.0" standalone="no"?><!DOCTYPE svg PUBLIC "-//W3C//DTD SVG 1.1//EN" "http://www.w3.org/Graphics/SVG/1.1/DTD/svg11.dtd" ><svg version="1.1" xmlns="http://www.w3.org/2000/svg"><defs><font horiz-adv-x="0" id="font"><font-face ascent="700" bbox="-9 -230 675 842" cap-height="580" descent="-300" font-family="bt_mono Medium" font-stretch="normal" font-style="normal" font-weight="600" units-per-em="1000" x-height="426" /><missing-glyph d="M526 580V0H54V580ZM146 420V160L237 290ZM198 85H381L290 215ZM434 160V420L342 290ZM290 365 381 495H199Z" horiz-adv-x="580" /><glyph glyph-name=".null" horiz-adv-x="0" /><glyph d="M439 59 398 186H179L137 59H218V0H16V59H72L245 580H335L508 59H564V0H360V59ZM198 245H379L289 521Z" glyph-name="A" horiz-adv-x="580" unicode="A" /><glyph d="M50 59 197 521H141V580H553V403H492V521H351V322H418V363H474V223H418V265H351V59H499V164H560V0H237V59H288V183H151L112 59H165V0H14V59ZM258 521 169 240H288V521Z" glyph-name="AE" horiz-adv-x="580" unicode="&#198;" /><glyph d="M401 755 229 636 196 679 349 822ZM439 59 398 186H179L137 59H218V0H16V59H72L245 580H335L508 59H564V0H360V59ZM198 245H379L289 521Z" glyph-name="Aacute" horiz-adv-x="580" unicode="&#193;" /><glyph d="M439 59 398 186H179L137 59H218V0H16V59H72L245 580H335L508 59H564V0H360V59ZM198 245H379L289 521ZM290 648Q235 648 199 680.5Q163 713 160 767L218 772Q221 743 239.5 722Q258 701 290 701Q321 701 340 722Q359 743 362 772L420 767Q417 713 381 680.5Q345 648 290 648Z" glyph-name="Abreve" horiz-adv-x="580" unicode="&#258;" /><glyph d="M439 59 398 186H179L137 59H218V0H16V59H72L245 580H335L508 59H564V0H360V59ZM198 245H379L289 521ZM290 806 419 683 380 640 290 726 200 640 161 683Z" glyph-name="Acircumflex" horiz-adv-x="580" unicode="&#194;" /><glyph d="M248 710Q248 684 231.5 668.5Q215 653 191 653Q168 653 151 668.5Q134 684 134 710Q134 735 151 751Q168 767 191 767Q215 767 231.5 751Q248 735 248 710ZM446 710Q446 684 429 668.5Q412 653 389 653Q365 653 348.5 668.5Q332 684 332 710Q332 735 348.5 751Q365 767 389 767Q412 767 429 751Q446 735 446 710ZM439 59 398 186H179L137 59H218V0H16V59H72L245 580H335L508 59H564V0H360V59ZM198 245H379L289 521Z" glyph-name="Adieresis" horiz-adv-x="580" unicode="&#196;" /><glyph d="M230 822 384 680 350 636 179 755ZM439 59 398 186H179L137 59H218V0H16V59H72L245 580H335L508 59H564V0H360V59ZM198 245H379L289 521Z" glyph-name="Agrave" horiz-adv-x="580" unicode="&#192;" /><glyph d="M439 59 398 186H179L137 59H218V0H16V59H72L245 580H335L508 59H564V0H360V59ZM198 245H379L289 521ZM167 716H413V657H167Z" glyph-name="Amacron" horiz-adv-x="580" unicode="&#256;" /><glyph d="M360 0V59H439L398 186H179L137 59H218V0H16V59H72L245 580H335L508 59H564V0H510Q457 -29 427 -58.5Q397 -88 397 -116Q397 -131 406 -142Q415 -153 435 -153Q454 -153 473 -142.5Q492 -132 510 -115L540 -152Q517 -175 489.5 -190.5Q462 -206 427 -206Q385 -206 361.5 -182.5Q338 -159 338 -123Q338 -88 360 -58.5Q382 -29 427 0ZM198 245H379L289 521Z" glyph-name="Aogonek" horiz-adv-x="580" unicode="&#260;" /><glyph d="M439 59 398 186H179L137 59H218V0H16V59H72L245 580H335L508 59H564V0H360V59ZM198 245H379L289 521ZM391 733Q391 691 362 661.5Q333 632 290 632Q247 632 218 661.5Q189 691 189 733Q189 776 218 805Q247 834 290 834Q333 834 362 805Q391 776 391 733ZM339 733Q339 754 326 769Q313 784 290 784Q267 784 254 769Q241 754 241 733Q241 712 254 697Q267 682 290 682Q313 682 326 697Q339 712 339 733Z" glyph-name="Aring" horiz-adv-x="580" unicode="&#197;" /><glyph d="M439 59 398 186H179L137 59H218V0H16V59H72L245 580H335L508 59H564V0H360V59ZM198 245H379L289 521ZM438 719Q437 707 430.5 693Q424 679 412.5 667Q401 655 385 647Q369 639 349 639Q327 639 311.5 646.5Q296 654 283.5 662.5Q271 671 259.5 678.5Q248 686 234 686Q215 686 205 673.5Q195 661 192 646L140 662Q141 675 148 689Q155 703 166.5 715Q178 727 194 734.5Q210 742 230 742Q251 742 267 734.5Q283 727 295.5 718.5Q308 710 319.5 702.5Q331 695 344 695Q363 695 373.5 707.5Q384 720 386 735Z" glyph-name="Atilde" horiz-adv-x="580" unicode="&#195;" /><glyph d="M495 428Q495 377 469.5 345.5Q444 314 406 300Q461 287 495 251Q529 215 529 160Q529 80 471.5 40Q414 0 312 0H42V59H116V521H42V580H299Q390 580 442.5 541.5Q495 503 495 428ZM181 59H303Q385 59 424 84.5Q463 110 463 162Q463 214 420 241Q377 268 296 268H181ZM181 325H288Q429 325 429 424Q429 521 288 521H181Z" glyph-name="B" horiz-adv-x="580" unicode="B" /><glyph d="M305 594Q355 594 396.5 572Q438 550 456 518V580H516V383H461Q459 415 446 442.5Q433 470 412.5 490Q392 510 364.5 521.5Q337 533 306 533Q261 533 227 514Q193 495 170 462Q147 429 135.5 385Q124 341 124 291Q124 241 136 196.5Q148 152 171 119Q194 86 229.5 66.5Q265 47 311 47Q345 47 370.5 56.5Q396 66 415 81Q434 96 447.5 114.5Q461 133 471 151L526 118Q514 96 495.5 72.5Q477 49 450 29.5Q423 10 388.5 -2Q354 -14 310 -14Q253 -14 206 8Q159 30 126 70Q93 110 74.5 166.5Q56 223 56 291Q56 359 74 415Q92 471 125 511Q158 551 204 572.5Q250 594 305 594Z" glyph-name="C" horiz-adv-x="580" unicode="C" /><glyph d="M411 755 240 636 206 679 360 822ZM305 594Q355 594 396.5 572Q438 550 456 518V580H516V383H461Q459 415 446 442.5Q433 470 412.5 490Q392 510 364.5 521.5Q337 533 306 533Q261 533 227 514Q193 495 170 462Q147 429 135.5 385Q124 341 124 291Q124 241 136 196.5Q148 152 171 119Q194 86 229.5 66.5Q265 47 311 47Q345 47 370.5 56.5Q396 66 415 81Q434 96 447.5 114.5Q461 133 471 151L526 118Q514 96 495.5 72.5Q477 49 450 29.5Q423 10 388.5 -2Q354 -14 310 -14Q253 -14 206 8Q159 30 126 70Q93 110 74.5 166.5Q56 223 56 291Q56 359 74 415Q92 471 125 511Q158 551 204 572.5Q250 594 305 594Z" glyph-name="Cacute" horiz-adv-x="580" unicode="&#262;" /><glyph d="M177 763 216 807 306 721 396 807 434 763 306 640ZM305 594Q355 594 396.5 572Q438 550 456 518V580H516V383H461Q459 415 446 442.5Q433 470 412.5 490Q392 510 364.5 521.5Q337 533 306 533Q261 533 227 514Q193 495 170 462Q147 429 135.5 385Q124 341 124 291Q124 241 136 196.5Q148 152 171 119Q194 86 229.5 66.5Q265 47 311 47Q345 47 370.5 56.5Q396 66 415 81Q434 96 447.5 114.5Q461 133 471 151L526 118Q514 96 495.5 72.5Q477 49 450 29.5Q423 10 388.5 -2Q354 -14 310 -14Q253 -14 206 8Q159 30 126 70Q93 110 74.5 166.5Q56 223 56 291Q56 359 74 415Q92 471 125 511Q158 551 204 572.5Q250 594 305 594Z" glyph-name="Ccaron" horiz-adv-x="580" unicode="&#268;" /><glyph d="M227 -146Q241 -165 255 -175.5Q269 -186 292 -186Q315 -186 329 -174.5Q343 -163 343 -142Q343 -122 329 -111Q315 -100 297 -100Q282 -100 269 -105L234 -80L267 -10Q219 -3 180 22Q141 47 113.5 86.5Q86 126 71 178Q56 230 56 291Q56 359 74 415Q92 471 125 511Q158 551 204 572.5Q250 594 305 594Q355 594 396.5 572Q438 550 456 518V580H516V383H461Q459 415 446 442.5Q433 470 412.5 490Q392 510 364.5 521.5Q337 533 306 533Q261 533 227 514Q193 495 170 462Q147 429 135.5 385Q124 341 124 291Q124 241 136 196.5Q148 152 171 119Q194 86 229.5 66.5Q265 47 311 47Q345 47 370.5 56.5Q396 66 415 81Q434 96 447.5 114.5Q461 133 471 151L526 118Q514 96 495.5 72.5Q477 49 450 29.5Q423 10 388.5 -2Q354 -14 310 -14L289 -59Q295 -57 303 -57Q340 -57 366 -81Q392 -105 392 -141Q392 -183 362.5 -206.5Q333 -230 292 -230Q257 -230 230.5 -213Q204 -196 191 -173Z" glyph-name="Ccedilla" horiz-adv-x="580" unicode="&#199;" /><glyph d="M305 806 434 683 395 640 305 726 215 640 176 683ZM305 594Q355 594 396.5 572Q438 550 456 518V580H516V383H461Q459 415 446 442.5Q433 470 412.5 490Q392 510 364.5 521.5Q337 533 306 533Q261 533 227 514Q193 495 170 462Q147 429 135.5 385Q124 341 124 291Q124 241 136 196.5Q148 152 171 119Q194 86 229.5 66.5Q265 47 311 47Q345 47 370.5 56.5Q396 66 415 81Q434 96 447.5 114.5Q461 133 471 151L526 118Q514 96 495.5 72.5Q477 49 450 29.5Q423 10 388.5 -2Q354 -14 310 -14Q253 -14 206 8Q159 30 126 70Q93 110 74.5 166.5Q56 223 56 291Q56 359 74 415Q92 471 125 511Q158 551 204 572.5Q250 594 305 594Z" glyph-name="Ccircumflex" horiz-adv-x="580" unicode="&#264;" /><glyph d="M367 712Q367 685 349 667.5Q331 650 305 650Q279 650 261.5 667.5Q244 685 244 712Q244 739 261.5 756Q279 773 305 773Q331 773 349 756Q367 739 367 712ZM305 594Q355 594 396.5 572Q438 550 456 518V580H516V383H461Q459 415 446 442.5Q433 470 412.5 490Q392 510 364.5 521.5Q337 533 306 533Q261 533 227 514Q193 495 170 462Q147 429 135.5 385Q124 341 124 291Q124 241 136 196.5Q148 152 171 119Q194 86 229.5 66.5Q265 47 311 47Q345 47 370.5 56.5Q396 66 415 81Q434 96 447.5 114.5Q461 133 471 151L526 118Q514 96 495.5 72.5Q477 49 450 29.5Q423 10 388.5 -2Q354 -14 310 -14Q253 -14 206 8Q159 30 126 70Q93 110 74.5 166.5Q56 223 56 291Q56 359 74 415Q92 471 125 511Q158 551 204 572.5Q250 594 305 594Z" glyph-name="Cdotaccent" horiz-adv-x="580" unicode="&#266;" /><glyph d="M247 580Q319 580 374 559Q429 538 466 500Q503 462 522 408.5Q541 355 541 290Q541 225 522 171.5Q503 118 466 80Q429 42 374 21Q319 0 247 0H46V59H110V521H46V580ZM175 521V59H247Q304 59 346.5 76Q389 93 417 124Q445 155 459 197Q473 239 473 290Q473 340 459 382.5Q445 425 417 456Q389 487 346.5 504Q304 521 247 521Z" glyph-name="D" horiz-adv-x="580" unicode="D" /><glyph d="M148 763 187 807 276 721 366 807 405 763 276 640ZM247 580Q319 580 374 559Q429 538 466 500Q503 462 522 408.5Q541 355 541 290Q541 225 522 171.5Q503 118 466 80Q429 42 374 21Q319 0 247 0H46V59H110V521H46V580ZM175 521V59H247Q304 59 346.5 76Q389 93 417 124Q445 155 459 197Q473 239 473 290Q473 340 459 382.5Q445 425 417 456Q389 487 346.5 504Q304 521 247 521Z" glyph-name="Dcaron" horiz-adv-x="580" unicode="&#270;" /><glyph d="M248 580Q320 580 375 559Q430 538 467 500Q504 462 523 408.5Q542 355 542 290Q542 225 523 171.5Q504 118 467 80Q430 42 375 21Q320 0 248 0H47V59H111V275H43V334H111V521H47V580ZM320 275H176V59H248Q305 59 347.5 76Q390 93 418 124Q446 155 460 197Q474 239 474 290Q474 340 460 382.5Q446 425 418 456Q390 487 347.5 504Q305 521 248 521H176V334H320Z" glyph-name="Dcroat" horiz-adv-x="580" unicode="&#272;" /><glyph d="M245 580H335L529 0H51ZM137 59H442L290 518Z" glyph-name="Delta" horiz-adv-x="580" unicode="&#8710;" /><glyph d="M370 201H310V266H188V59H465V169H527V0H49V59H123V521H49V580H519V397H457V521H188V324H310V389H370Z" glyph-name="E" horiz-adv-x="580" unicode="E" /><glyph d="M418 755 247 636 213 679 367 822ZM370 201H310V266H188V59H465V169H527V0H49V59H123V521H49V580H519V397H457V521H188V324H310V389H370Z" glyph-name="Eacute" horiz-adv-x="580" unicode="&#201;" /><glyph d="M301 648Q246 648 210 680.5Q174 713 171 767L229 772Q231 743 250 722Q269 701 301 701Q332 701 351 722Q370 743 373 772L431 767Q428 713 392 680.5Q356 648 301 648ZM370 201H310V266H188V59H465V169H527V0H49V59H123V521H49V580H519V397H457V521H188V324H310V389H370Z" glyph-name="Ebreve" horiz-adv-x="580" unicode="&#276;" /><glyph d="M173 763 212 807 301 721 391 807 430 763 301 640ZM370 201H310V266H188V59H465V169H527V0H49V59H123V521H49V580H519V397H457V521H188V324H310V389H370Z" glyph-name="Ecaron" horiz-adv-x="580" unicode="&#282;" /><glyph d="M301 806 430 683 391 640 301 726 212 640 173 683ZM370 201H310V266H188V59H465V169H527V0H49V59H123V521H49V580H519V397H457V521H188V324H310V389H370Z" glyph-name="Ecircumflex" horiz-adv-x="580" unicode="&#202;" /><glyph d="M259 712Q259 687 242.5 671Q226 655 202 655Q179 655 162 671Q145 687 145 712Q145 737 162 753Q179 769 202 769Q226 769 242.5 753Q259 737 259 712ZM457 712Q457 687 440 671Q423 655 400 655Q376 655 359.5 671Q343 687 343 712Q343 737 359.5 753Q376 769 400 769Q423 769 440 753Q457 737 457 712ZM370 201H310V266H188V59H465V169H527V0H49V59H123V521H49V580H519V397H457V521H188V324H310V389H370Z" glyph-name="Edieresis" horiz-adv-x="580" unicode="&#203;" /><glyph d="M363 712Q363 685 345 667.5Q327 650 301 650Q275 650 257.5 667.5Q240 685 240 712Q240 739 257.5 756Q275 773 301 773Q327 773 345 756Q363 739 363 712ZM370 201H310V266H188V59H465V169H527V0H49V59H123V521H49V580H519V397H457V521H188V324H310V389H370Z" glyph-name="Edotaccent" horiz-adv-x="580" unicode="&#278;" /><glyph d="M242 822 396 680 362 636 190 755ZM370 201H310V266H188V59H465V169H527V0H49V59H123V521H49V580H519V397H457V521H188V324H310V389H370Z" glyph-name="Egrave" horiz-adv-x="580" unicode="&#200;" /><glyph d="M178 716H424V657H178ZM370 201H310V266H188V59H465V169H527V0H49V59H123V521H49V580H519V397H457V521H188V324H310V389H370Z" glyph-name="Emacron" horiz-adv-x="580" unicode="&#274;" /><glyph d="M154 483V59H239V0H34V59H91V521H34V580H171L427 106V521H347V580H547V521H490V-47Q490 -81 478.5 -109.5Q467 -138 447 -158.5Q427 -179 399.5 -190.5Q372 -202 340 -202Q287 -202 248.5 -175Q210 -148 195 -102L252 -79Q264 -111 287.5 -128Q311 -145 340 -145Q378 -145 403 -116Q428 -87 428 -43V-22Z" glyph-name="Eng" horiz-adv-x="580" unicode="&#330;" /><glyph d="M49 0V59H123V521H49V580H518V397H457V521H188V324H310V389H370V201H310V266H188V59H465V169H527V0H484Q431 -29 401 -58.5Q371 -88 371 -116Q371 -131 380 -142Q389 -153 409 -153Q428 -153 447 -142.5Q466 -132 484 -115L514 -152Q491 -175 463.5 -190.5Q436 -206 401 -206Q359 -206 335.5 -182.5Q312 -159 312 -123Q312 -88 334 -58.5Q356 -29 401 0Z" glyph-name="Eogonek" horiz-adv-x="580" unicode="&#280;" /><glyph d="M248 580Q320 580 375 559Q430 538 467 500Q504 462 523 408.5Q542 355 542 290Q542 225 523 171.5Q504 118 467 80Q430 42 375 21Q320 0 248 0H47V59H111V275H43V334H111V521H47V580ZM320 275H176V59H248Q305 59 347.5 76Q390 93 418 124Q446 155 460 197Q474 239 474 290Q474 340 460 382.5Q446 425 418 456Q390 487 347.5 504Q305 521 248 521H176V334H320Z" glyph-name="Eth" horiz-adv-x="580" unicode="&#208;" /><glyph d="M89 376Q109 476 170 535Q231 594 322 594Q370 594 410 573.5Q450 553 467 522V580H527V392H473Q470 423 457.5 449Q445 475 424.5 493.5Q404 512 378 522.5Q352 533 323 533Q257 533 215.5 489Q174 445 159 376H362L347 320H151Q150 312 150 305Q150 298 150 290Q150 282 150 273.5Q150 265 151 257H334L318 201H160Q177 133 218 90Q259 47 328 47Q361 47 386 57Q411 67 429 82Q447 97 460 115.5Q473 134 482 151L538 118Q528 98 510.5 74.5Q493 51 466.5 31.5Q440 12 405.5 -1Q371 -14 327 -14Q236 -14 173.5 44Q111 102 90 201H28V257H83Q82 265 82 273.5Q82 282 82 291Q82 299 82 305.5Q82 312 83 320H28V376Z" glyph-name="Euro" horiz-adv-x="580" unicode="&#8364;" /><glyph d="M385 201H325V266H190V59H341V0H49V59H125V521H49V580H537V397H475V521H190V324H325V389H385Z" glyph-name="F" horiz-adv-x="580" unicode="F" /><glyph d="M288 533Q243 533 209.5 514Q176 495 153.5 462Q131 429 119.5 385Q108 341 108 291Q108 241 119 196.5Q130 152 152 119Q174 86 207 66.5Q240 47 285 47Q317 47 344.5 59.5Q372 72 393 92.5Q414 113 426 140Q438 167 438 197V228H331V287H554V228H500V0H438V69Q423 34 381 10Q339 -14 283 -14Q228 -14 183.5 8Q139 30 107 70Q75 110 57.5 166.5Q40 223 40 291Q40 359 58 415Q76 471 109 511Q142 551 187.5 572.5Q233 594 288 594Q339 594 380.5 572.5Q422 551 438 522V580H498V393H444Q441 424 428 450Q415 476 394.5 494.5Q374 513 346.5 523Q319 533 288 533Z" glyph-name="G" horiz-adv-x="580" unicode="G" /><glyph d="M288 648Q233 648 197 680.5Q161 713 158 767L216 772Q218 743 237 722Q256 701 288 701Q319 701 338 722Q357 743 360 772L417 767Q414 713 378 680.5Q342 648 288 648ZM288 533Q243 533 209.5 514Q176 495 153.5 462Q131 429 119.5 385Q108 341 108 291Q108 241 119 196.5Q130 152 152 119Q174 86 207 66.5Q240 47 285 47Q317 47 344.5 59.5Q372 72 393 92.5Q414 113 426 140Q438 167 438 197V228H331V287H554V228H500V0H438V69Q423 34 381 10Q339 -14 283 -14Q228 -14 183.5 8Q139 30 107 70Q75 110 57.5 166.5Q40 223 40 291Q40 359 58 415Q76 471 109 511Q142 551 187.5 572.5Q233 594 288 594Q339 594 380.5 572.5Q422 551 438 522V580H498V393H444Q441 424 428 450Q415 476 394.5 494.5Q374 513 346.5 523Q319 533 288 533Z" glyph-name="Gbreve" horiz-adv-x="580" unicode="&#286;" /><glyph d="M288 806 416 683 378 640 288 726 198 640 159 683ZM288 533Q243 533 209.5 514Q176 495 153.5 462Q131 429 119.5 385Q108 341 108 291Q108 241 119 196.5Q130 152 152 119Q174 86 207 66.5Q240 47 285 47Q317 47 344.5 59.5Q372 72 393 92.5Q414 113 426 140Q438 167 438 197V228H331V287H554V228H500V0H438V69Q423 34 381 10Q339 -14 283 -14Q228 -14 183.5 8Q139 30 107 70Q75 110 57.5 166.5Q40 223 40 291Q40 359 58 415Q76 471 109 511Q142 551 187.5 572.5Q233 594 288 594Q339 594 380.5 572.5Q422 551 438 522V580H498V393H444Q441 424 428 450Q415 476 394.5 494.5Q374 513 346.5 523Q319 533 288 533Z" glyph-name="Gcircumflex" horiz-adv-x="580" unicode="&#284;" /><glyph d="M331 -61 270 -227H212L244 -61ZM288 533Q243 533 209.5 514Q176 495 153.5 462Q131 429 119.5 385Q108 341 108 291Q108 241 119 196.5Q130 152 152 119Q174 86 207 66.5Q240 47 285 47Q317 47 344.5 59.5Q372 72 393 92.5Q414 113 426 140Q438 167 438 197V228H331V287H554V228H500V0H438V69Q423 34 381 10Q339 -14 283 -14Q228 -14 183.5 8Q139 30 107 70Q75 110 57.5 166.5Q40 223 40 291Q40 359 58 415Q76 471 109 511Q142 551 187.5 572.5Q233 594 288 594Q339 594 380.5 572.5Q422 551 438 522V580H498V393H444Q441 424 428 450Q415 476 394.5 494.5Q374 513 346.5 523Q319 533 288 533Z" glyph-name="Gcommaaccent" horiz-adv-x="580" unicode="&#290;" /><glyph d="M349 712Q349 685 331.5 667.5Q314 650 288 650Q262 650 244 667.5Q226 685 226 712Q226 739 244 756Q262 773 288 773Q314 773 331.5 756Q349 739 349 712ZM288 533Q243 533 209.5 514Q176 495 153.5 462Q131 429 119.5 385Q108 341 108 291Q108 241 119 196.5Q130 152 152 119Q174 86 207 66.5Q240 47 285 47Q317 47 344.5 59.5Q372 72 393 92.5Q414 113 426 140Q438 167 438 197V228H331V287H554V228H500V0H438V69Q423 34 381 10Q339 -14 283 -14Q228 -14 183.5 8Q139 30 107 70Q75 110 57.5 166.5Q40 223 40 291Q40 359 58 415Q76 471 109 511Q142 551 187.5 572.5Q233 594 288 594Q339 594 380.5 572.5Q422 551 438 522V580H498V393H444Q441 424 428 450Q415 476 394.5 494.5Q374 513 346.5 523Q319 533 288 533Z" glyph-name="Gdotaccent" horiz-adv-x="580" unicode="&#288;" /><glyph d="M237 580V521H163V326H417V521H343V580H548V521H482V59H548V0H343V59H417V267H163V59H237V0H32V59H98V521H32V580Z" glyph-name="H" horiz-adv-x="580" unicode="H" /><glyph d="M548 388H482V59H548V0H343V59H417V250H163V59H237V0H32V59H98V388H32V446H98V521H32V580H237V521H163V446H417V521H343V580H548V521H482V446H548ZM417 308V388H163V308Z" glyph-name="Hbar" horiz-adv-x="580" unicode="&#294;" /><glyph d="M237 580V521H163V326H417V521H343V580H548V521H482V59H548V0H343V59H417V267H163V59H237V0H32V59H98V521H32V580ZM290 806 419 683 380 640 290 726 200 640 161 683Z" glyph-name="Hcircumflex" horiz-adv-x="580" unicode="&#292;" /><glyph d="M485 580V521H323V59H485V0H95V59H257V521H95V580Z" glyph-name="I" horiz-adv-x="580" unicode="I" /><glyph d="M242 580V521H159V59H242V0H11V59H94V521H11V580ZM336 580H555V162Q555 83 516 34.5Q477 -14 408 -14Q344 -14 307.5 27.5Q271 69 260 130L322 145Q333 100 352.5 73Q372 46 408 46Q447 46 468.5 77.5Q490 109 490 167V521H336Z" glyph-name="IJ" horiz-adv-x="580" unicode="&#306;" /><glyph d="M485 580V521H323V59H485V0H95V59H257V521H95V580ZM403 755 231 636 198 679 351 822Z" glyph-name="Iacute" horiz-adv-x="580" unicode="&#205;" /><glyph d="M485 580V521H323V59H485V0H95V59H257V521H95V580ZM290 648Q235 648 199 680.5Q163 713 160 767L218 772Q221 743 239.5 722Q258 701 290 701Q321 701 340 722Q359 743 362 772L420 767Q417 713 381 680.5Q345 648 290 648Z" glyph-name="Ibreve" horiz-adv-x="580" unicode="&#300;" /><glyph d="M485 580V521H323V59H485V0H95V59H257V521H95V580ZM290 806 419 683 380 640 290 726 200 640 161 683Z" glyph-name="Icircumflex" horiz-adv-x="580" unicode="&#206;" /><glyph d="M485 580V521H323V59H485V0H95V59H257V521H95V580ZM248 712Q248 687 231.5 671Q215 655 191 655Q168 655 151 671Q134 687 134 712Q134 737 151 753Q168 769 191 769Q215 769 231.5 753Q248 737 248 712ZM446 712Q446 687 429 671Q412 655 389 655Q365 655 348.5 671Q332 687 332 712Q332 737 348.5 753Q365 769 389 769Q412 769 429 753Q446 737 446 712Z" glyph-name="Idieresis" horiz-adv-x="580" unicode="&#207;" /><glyph d="M485 580V521H323V59H485V0H95V59H257V521H95V580ZM352 712Q352 685 334 667.5Q316 650 290 650Q264 650 246 667.5Q228 685 228 712Q228 739 246 756Q264 773 290 773Q316 773 334 756Q352 739 352 712Z" glyph-name="Idotaccent" horiz-adv-x="580" unicode="&#304;" /><glyph d="M485 580V521H323V59H485V0H95V59H257V521H95V580ZM227 822 381 680 347 636 176 755Z" glyph-name="Igrave" horiz-adv-x="580" unicode="&#204;" /><glyph d="M485 580V521H323V59H485V0H95V59H257V521H95V580ZM167 716H413V657H167Z" glyph-name="Imacron" horiz-adv-x="580" unicode="&#298;" /><glyph d="M95 0V59H257V521H95V580H485V521H323V59H485V0H441Q387 -29 357 -58.5Q327 -88 327 -116Q327 -131 336 -142Q345 -153 365 -153Q385 -153 403.5 -142.5Q422 -132 440 -115L471 -152Q447 -175 419.5 -190.5Q392 -206 358 -206Q316 -206 292 -182.5Q268 -159 268 -123Q268 -88 290 -58.5Q312 -29 357 0Z" glyph-name="Iogonek" horiz-adv-x="580" unicode="&#302;" /><glyph d="M485 580V521H323V59H485V0H95V59H257V521H95V580ZM438 719Q437 707 430.5 693Q424 679 412.5 667Q401 655 385 647Q369 639 349 639Q327 639 311.5 646.5Q296 654 283.5 662.5Q271 671 259.5 678.5Q248 686 234 686Q215 686 205 673.5Q195 661 192 646L140 662Q141 675 148 689Q155 703 166.5 715Q178 727 194 734.5Q210 742 230 742Q251 742 267 734.5Q283 727 295.5 718.5Q308 710 319.5 702.5Q331 695 344 695Q363 695 373.5 707.5Q384 720 386 735Z" glyph-name="Itilde" horiz-adv-x="580" unicode="&#296;" /><glyph d="M180 580H482V192Q482 145 466 107Q450 69 422.5 42Q395 15 358.5 0.5Q322 -14 282 -14Q247 -14 214 -3.5Q181 7 154 28.5Q127 50 108 82.5Q89 115 81 160L145 172Q156 110 192.5 78Q229 46 282 46Q309 46 333.5 57Q358 68 376.5 87.5Q395 107 406 134.5Q417 162 417 196V521H180Z" glyph-name="J" horiz-adv-x="580" unicode="J" /><glyph d="M442 806 571 683 532 640 442 726 353 640 314 683ZM180 580H482V192Q482 145 466 107Q450 69 422.5 42Q395 15 358.5 0.5Q322 -14 282 -14Q247 -14 214 -3.5Q181 7 154 28.5Q127 50 108 82.5Q89 115 81 160L145 172Q156 110 192.5 78Q229 46 282 46Q309 46 333.5 57Q358 68 376.5 87.5Q395 107 406 134.5Q417 162 417 196V521H180Z" glyph-name="Jcircumflex" horiz-adv-x="580" unicode="&#308;" /><glyph d="M423 59 262 301 162 202V59H231V0H33V59H97V521H33V580H231V521H162V284L402 521H337V580H540V521H487L308 346L497 59H557V0H348V59Z" glyph-name="K" horiz-adv-x="580" unicode="K" /><glyph d="M423 59 262 301 162 202V59H231V0H33V59H97V521H33V580H231V521H162V284L402 521H337V580H540V521H487L308 346L497 59H557V0H348V59ZM338 -61 276 -227H219L251 -61Z" glyph-name="Kcommaaccent" horiz-adv-x="580" unicode="&#310;" /><glyph d="M50 59H136V521H50V580H298V521H201V59H464V189H526V0H50Z" glyph-name="L" horiz-adv-x="580" unicode="L" /><glyph d="M50 59H136V521H50V580H298V521H201V59H465V189H526V0H50ZM343 755 171 636 138 679 291 822Z" glyph-name="Lacute" horiz-adv-x="580" unicode="&#313;" /><glyph d="M50 59H136V521H50V580H298V521H201V59H465V189H526V0H50ZM497 613 409 441 357 461 418 644Z" glyph-name="Lcaron" horiz-adv-x="580" unicode="&#317;" /><glyph d="M50 59H136V521H50V580H298V521H201V59H465V189H526V0H50ZM356 -61 294 -227H236L268 -61Z" glyph-name="Lcommaaccent" horiz-adv-x="580" unicode="&#315;" /><glyph d="M50 59H136V521H50V580H298V521H201V59H465V189H526V0H50ZM414 331Q414 303 396 286Q378 269 352 269Q326 269 308 286Q290 303 290 331Q290 358 308 375Q326 392 352 392Q378 392 396 375Q414 358 414 331Z" glyph-name="Ldot" horiz-adv-x="580" unicode="&#319;" /><glyph d="M42 259 136 311V521H50V580H298V521H201V347L339 422L368 369L201 277V59H464V189H526V0H50V59H136V242L71 206Z" glyph-name="Lslash" horiz-adv-x="580" unicode="&#321;" /><glyph d="M259 179 131 482V59H211V0H19V59H69V521H19V580H152L291 247L430 580H561V521H511V59H561V0H369V59H449V482L321 179Z" glyph-name="M" horiz-adv-x="580" unicode="M" /><glyph d="M416 0 154 483V59H239V0H34V59H91V521H34V580H171L427 106V521H347V580H547V521H490V0Z" glyph-name="N" horiz-adv-x="580" unicode="N" /><glyph d="M412 755 240 636 206 679 360 822ZM416 0 154 483V59H239V0H34V59H91V521H34V580H171L427 106V521H347V580H547V521H490V0Z" glyph-name="Nacute" horiz-adv-x="580" unicode="&#323;" /><glyph d="M160 763 199 807 289 721 379 807 418 763 289 640ZM416 0 154 483V59H239V0H34V59H91V521H34V580H171L427 106V521H347V580H547V521H490V0Z" glyph-name="Ncaron" horiz-adv-x="580" unicode="&#327;" /><glyph d="M349 -61 287 -227H229L261 -61ZM416 0 154 483V59H239V0H34V59H91V521H34V580H171L427 106V521H347V580H547V521H490V0Z" glyph-name="Ncommaaccent" horiz-adv-x="580" unicode="&#325;" /><glyph d="M441 719Q440 707 433 693Q426 679 414.5 667Q403 655 387 647Q371 639 351 639Q330 639 314.5 646.5Q299 654 286 662.5Q273 671 261.5 678.5Q250 686 237 686Q218 686 207.5 673.5Q197 661 194 646L143 662Q144 675 150.5 689Q157 703 168.5 715Q180 727 196 734.5Q212 742 232 742Q254 742 269.5 734.5Q285 727 298 718.5Q311 710 322.5 702.5Q334 695 347 695Q366 695 376 707.5Q386 720 389 735ZM416 0 154 483V59H239V0H34V59H91V521H34V580H171L427 106V521H347V580H547V521H490V0Z" glyph-name="Ntilde" horiz-adv-x="580" unicode="&#209;" /><glyph d="M42 290Q42 358 60 414Q78 470 111 510Q144 550 189.5 572Q235 594 290 594Q345 594 390.5 572Q436 550 469 510Q502 470 520 414Q538 358 538 290Q538 222 520 166Q502 110 469 70Q436 30 390.5 8Q345 -14 290 -14Q235 -14 189.5 8Q144 30 111 70Q78 110 60 166Q42 222 42 290ZM470 290Q470 340 458.5 384Q447 428 424.5 461Q402 494 368 513.5Q334 533 290 533Q246 533 212 513.5Q178 494 155.5 461Q133 428 121.5 384Q110 340 110 290Q110 240 121.5 195.5Q133 151 155.5 118Q178 85 212 66Q246 47 290 47Q334 47 368 66Q402 85 424.5 118Q447 151 458.5 195.5Q470 240 470 290Z" glyph-name="O" horiz-adv-x="580" unicode="O" /><glyph d="M20 290Q20 355 38.5 408.5Q57 462 91 500Q125 538 171.5 559Q218 580 273 580H553V403H492V521H350V322H417V363H474V223H417V264H350V59H499V164H560V0H273Q218 0 171.5 21Q125 42 91 80Q57 118 38.5 171.5Q20 225 20 290ZM287 521H276Q230 521 194.5 503Q159 485 135.5 453.5Q112 422 100 380Q88 338 88 290Q88 242 100 200Q112 158 135.5 126.5Q159 95 194.5 77Q230 59 276 59H287Z" glyph-name="OE" horiz-adv-x="580" unicode="&#338;" /><glyph d="M42 290Q42 358 60 414Q78 470 111 510Q144 550 189.5 572Q235 594 290 594Q345 594 390.5 572Q436 550 469 510Q502 470 520 414Q538 358 538 290Q538 222 520 166Q502 110 469 70Q436 30 390.5 8Q345 -14 290 -14Q235 -14 189.5 8Q144 30 111 70Q78 110 60 166Q42 222 42 290ZM470 290Q470 340 458.5 384Q447 428 424.5 461Q402 494 368 513.5Q334 533 290 533Q246 533 212 513.5Q178 494 155.5 461Q133 428 121.5 384Q110 340 110 290Q110 240 121.5 195.5Q133 151 155.5 118Q178 85 212 66Q246 47 290 47Q334 47 368 66Q402 85 424.5 118Q447 151 458.5 195.5Q470 240 470 290ZM396 755 225 636 191 679 345 822Z" glyph-name="Oacute" horiz-adv-x="580" unicode="&#211;" /><glyph d="M42 290Q42 358 60 414Q78 470 111 510Q144 550 189.5 572Q235 594 290 594Q345 594 390.5 572Q436 550 469 510Q502 470 520 414Q538 358 538 290Q538 222 520 166Q502 110 469 70Q436 30 390.5 8Q345 -14 290 -14Q235 -14 189.5 8Q144 30 111 70Q78 110 60 166Q42 222 42 290ZM470 290Q470 340 458.5 384Q447 428 424.5 461Q402 494 368 513.5Q334 533 290 533Q246 533 212 513.5Q178 494 155.5 461Q133 428 121.5 384Q110 340 110 290Q110 240 121.5 195.5Q133 151 155.5 118Q178 85 212 66Q246 47 290 47Q334 47 368 66Q402 85 424.5 118Q447 151 458.5 195.5Q470 240 470 290ZM290 654Q235 654 199 686.5Q163 719 160 772L218 777Q221 748 239.5 727.5Q258 707 290 707Q321 707 340 727.5Q359 748 362 777L420 772Q417 719 381 686.5Q345 654 290 654Z" glyph-name="Obreve" horiz-adv-x="580" unicode="&#334;" /><glyph d="M42 290Q42 358 60 414Q78 470 111 510Q144 550 189.5 572Q235 594 290 594Q345 594 390.5 572Q436 550 469 510Q502 470 520 414Q538 358 538 290Q538 222 520 166Q502 110 469 70Q436 30 390.5 8Q345 -14 290 -14Q235 -14 189.5 8Q144 30 111 70Q78 110 60 166Q42 222 42 290ZM470 290Q470 340 458.5 384Q447 428 424.5 461Q402 494 368 513.5Q334 533 290 533Q246 533 212 513.5Q178 494 155.5 461Q133 428 121.5 384Q110 340 110 290Q110 240 121.5 195.5Q133 151 155.5 118Q178 85 212 66Q246 47 290 47Q334 47 368 66Q402 85 424.5 118Q447 151 458.5 195.5Q470 240 470 290ZM290 806 419 683 380 640 290 726 200 640 161 683Z" glyph-name="Ocircumflex" horiz-adv-x="580" unicode="&#212;" /><glyph d="M42 290Q42 358 60 414Q78 470 111 510Q144 550 189.5 572Q235 594 290 594Q345 594 390.5 572Q436 550 469 510Q502 470 520 414Q538 358 538 290Q538 222 520 166Q502 110 469 70Q436 30 390.5 8Q345 -14 290 -14Q235 -14 189.5 8Q144 30 111 70Q78 110 60 166Q42 222 42 290ZM470 290Q470 340 458.5 384Q447 428 424.5 461Q402 494 368 513.5Q334 533 290 533Q246 533 212 513.5Q178 494 155.5 461Q133 428 121.5 384Q110 340 110 290Q110 240 121.5 195.5Q133 151 155.5 118Q178 85 212 66Q246 47 290 47Q334 47 368 66Q402 85 424.5 118Q447 151 458.5 195.5Q470 240 470 290ZM248 712Q248 687 231.5 671Q215 655 191 655Q168 655 151 671Q134 687 134 712Q134 737 151 753Q168 769 191 769Q215 769 231.5 753Q248 737 248 712ZM446 712Q446 687 429 671Q412 655 389 655Q365 655 348.5 671Q332 687 332 712Q332 737 348.5 753Q365 769 389 769Q412 769 429 753Q446 737 446 712Z" glyph-name="Odieresis" horiz-adv-x="580" unicode="&#214;" /><glyph d="M42 290Q42 358 60 414Q78 470 111 510Q144 550 189.5 572Q235 594 290 594Q345 594 390.5 572Q436 550 469 510Q502 470 520 414Q538 358 538 290Q538 222 520 166Q502 110 469 70Q436 30 390.5 8Q345 -14 290 -14Q235 -14 189.5 8Q144 30 111 70Q78 110 60 166Q42 222 42 290ZM470 290Q470 340 458.5 384Q447 428 424.5 461Q402 494 368 513.5Q334 533 290 533Q246 533 212 513.5Q178 494 155.5 461Q133 428 121.5 384Q110 340 110 290Q110 240 121.5 195.5Q133 151 155.5 118Q178 85 212 66Q246 47 290 47Q334 47 368 66Q402 85 424.5 118Q447 151 458.5 195.5Q470 240 470 290ZM235 822 389 680 355 636 184 755Z" glyph-name="Ograve" horiz-adv-x="580" unicode="&#210;" /><glyph d="M42 290Q42 358 60 414Q78 470 111 510Q144 550 189.5 572Q235 594 290 594Q345 594 390.5 572Q436 550 469 510Q502 470 520 414Q538 358 538 290Q538 222 520 166Q502 110 469 70Q436 30 390.5 8Q345 -14 290 -14Q235 -14 189.5 8Q144 30 111 70Q78 110 60 166Q42 222 42 290ZM470 290Q470 340 458.5 384Q447 428 424.5 461Q402 494 368 513.5Q334 533 290 533Q246 533 212 513.5Q178 494 155.5 461Q133 428 121.5 384Q110 340 110 290Q110 240 121.5 195.5Q133 151 155.5 118Q178 85 212 66Q246 47 290 47Q334 47 368 66Q402 85 424.5 118Q447 151 458.5 195.5Q470 240 470 290ZM358 759 190 638 157 678 307 822ZM544 759 376 638 342 678 492 822Z" glyph-name="Ohungarumlaut" horiz-adv-x="580" unicode="&#336;" /><glyph d="M42 290Q42 358 60 414Q78 470 111 510Q144 550 189.5 572Q235 594 290 594Q345 594 390.5 572Q436 550 469 510Q502 470 520 414Q538 358 538 290Q538 222 520 166Q502 110 469 70Q436 30 390.5 8Q345 -14 290 -14Q235 -14 189.5 8Q144 30 111 70Q78 110 60 166Q42 222 42 290ZM470 290Q470 340 458.5 384Q447 428 424.5 461Q402 494 368 513.5Q334 533 290 533Q246 533 212 513.5Q178 494 155.5 461Q133 428 121.5 384Q110 340 110 290Q110 240 121.5 195.5Q133 151 155.5 118Q178 85 212 66Q246 47 290 47Q334 47 368 66Q402 85 424.5 118Q447 151 458.5 195.5Q470 240 470 290ZM167 716H413V657H167Z" glyph-name="Omacron" horiz-adv-x="580" unicode="&#332;" /><glyph d="M467 511Q501 471 519.5 415Q538 359 538 290Q538 222 520 166Q502 110 469 70Q436 30 390.5 8Q345 -14 290 -14Q218 -14 165 22L108 -70L60 -40L121 59Q83 99 62.5 157.5Q42 216 42 290Q42 358 60 414Q78 470 111 510Q144 550 189.5 572Q235 594 290 594Q328 594 362 582.5Q396 571 425 551L478 637L526 606ZM110 290Q110 239 122 194.5Q134 150 157 117L391 497Q350 533 290 533Q246 533 212 513.5Q178 494 155.5 461Q133 428 121.5 384Q110 340 110 290ZM470 290Q470 336 460 377.5Q450 419 430 451L198 75Q237 47 290 47Q334 47 368 66Q402 85 424.5 118Q447 151 458.5 195.5Q470 240 470 290Z" glyph-name="Oslash" horiz-adv-x="580" unicode="&#216;" /><glyph d="M42 290Q42 358 60 414Q78 470 111 510Q144 550 189.5 572Q235 594 290 594Q345 594 390.5 572Q436 550 469 510Q502 470 520 414Q538 358 538 290Q538 222 520 166Q502 110 469 70Q436 30 390.5 8Q345 -14 290 -14Q235 -14 189.5 8Q144 30 111 70Q78 110 60 166Q42 222 42 290ZM470 290Q470 340 458.5 384Q447 428 424.5 461Q402 494 368 513.5Q334 533 290 533Q246 533 212 513.5Q178 494 155.5 461Q133 428 121.5 384Q110 340 110 290Q110 240 121.5 195.5Q133 151 155.5 118Q178 85 212 66Q246 47 290 47Q334 47 368 66Q402 85 424.5 118Q447 151 458.5 195.5Q470 240 470 290ZM439 719Q438 707 431 693Q424 679 412.5 667Q401 655 385 647Q369 639 349 639Q328 639 312.5 646.5Q297 654 284 662.5Q271 671 259.5 678.5Q248 686 235 686Q216 686 205.5 673.5Q195 661 193 646L141 662Q142 675 148.5 689Q155 703 166.5 715Q178 727 194 734.5Q210 742 230 742Q252 742 267.5 734.5Q283 727 296 718.5Q309 710 320.5 702.5Q332 695 345 695Q364 695 374 707.5Q384 720 387 735Z" glyph-name="Otilde" horiz-adv-x="580" unicode="&#213;" /><glyph d="M192 59H345V0H52V59H127V521H52V580H321Q419 580 476 540Q533 500 533 415Q533 373 517.5 341.5Q502 310 474 289.5Q446 269 407 259Q368 249 321 249H192ZM192 307H308Q465 307 465 415Q465 521 308 521H192Z" glyph-name="P" horiz-adv-x="580" unicode="P" /><glyph d="M535 -70Q504 -91 465 -91Q423 -91 398.5 -65Q374 -39 363 -2Q329 -14 290 -14Q235 -14 189.5 8Q144 30 111 70Q78 110 60 166Q42 222 42 290Q42 358 60 414Q78 470 111 510Q144 550 189.5 572Q235 594 290 594Q345 594 390.5 572Q436 550 469 510Q502 470 520 414Q538 358 538 290Q538 196 504.5 126.5Q471 57 413 21Q419 -1 431 -19Q443 -37 466 -37Q489 -37 510 -23ZM470 290Q470 340 458.5 384Q447 428 424.5 461Q402 494 368 513.5Q334 533 290 533Q246 533 212 513.5Q178 494 155.5 461Q133 428 121.5 384Q110 340 110 290Q110 240 121.5 195.5Q133 151 155.5 118Q178 85 212 66Q246 47 290 47Q307 47 322 49.5Q337 52 351 59Q349 71 344.5 83.5Q340 96 333 106Q326 116 316 122.5Q306 129 291 129Q278 129 268.5 124Q259 119 252 114L227 161Q239 172 256.5 178Q274 184 294 184Q336 184 362.5 157.5Q389 131 401 91Q435 124 452.5 176Q470 228 470 290Z" glyph-name="Q" horiz-adv-x="580" unicode="Q" /><glyph d="M283 254H164V59H249V0H30V59H99V521H30V580H289Q386 580 442.5 540Q499 500 499 417Q499 350 459 311Q419 272 353 260L475 59H563V0H434ZM164 313H276Q432 313 432 417Q432 521 276 521H164Z" glyph-name="R" horiz-adv-x="580" unicode="R" /><glyph d="M395 755 224 636 190 679 344 822ZM283 254H164V59H249V0H30V59H99V521H30V580H289Q386 580 442.5 540Q499 500 499 417Q499 350 459 311Q419 272 353 260L475 59H563V0H434ZM164 313H276Q432 313 432 417Q432 521 276 521H164Z" glyph-name="Racute" horiz-adv-x="580" unicode="&#340;" /><glyph d="M157 763 196 807 286 721 376 807 415 763 286 640ZM283 254H164V59H249V0H30V59H99V521H30V580H289Q386 580 442.5 540Q499 500 499 417Q499 350 459 311Q419 272 353 260L475 59H563V0H434ZM164 313H276Q432 313 432 417Q432 521 276 521H164Z" glyph-name="Rcaron" horiz-adv-x="580" unicode="&#344;" /><glyph d="M361 -61 299 -227H242L274 -61ZM283 254H164V59H249V0H30V59H99V521H30V580H289Q386 580 442.5 540Q499 500 499 417Q499 350 459 311Q419 272 353 260L475 59H563V0H434ZM164 313H276Q432 313 432 417Q432 521 276 521H164Z" glyph-name="Rcommaaccent" horiz-adv-x="580" unicode="&#342;" /><glyph d="M444 151Q444 179 433 197.5Q422 216 401.5 228.5Q381 241 352.5 249.5Q324 258 289 267Q250 277 214.5 289Q179 301 151 320Q123 339 106.5 368Q90 397 90 440Q90 481 105.5 510.5Q121 540 146 558.5Q171 577 203.5 585.5Q236 594 269 594Q324 594 363.5 573.5Q403 553 422 524V580H482V396H428Q426 425 413.5 450Q401 475 380.5 493.5Q360 512 332 523Q304 534 270 534Q249 534 229 529.5Q209 525 192.5 514.5Q176 504 166 486.5Q156 469 156 444Q156 416 168 397.5Q180 379 201 366Q222 353 249 345Q276 337 306 329Q344 319 381 307.5Q418 296 446.5 277Q475 258 492.5 228.5Q510 199 510 152Q510 112 496 81Q482 50 456.5 29Q431 8 396 -3Q361 -14 319 -14Q258 -14 212.5 7.5Q167 29 145 61V0H85V193H139Q140 162 154.5 135Q169 108 193 88.5Q217 69 249 57.5Q281 46 317 46Q371 46 407.5 71.5Q444 97 444 151Z" glyph-name="S" horiz-adv-x="580" unicode="S" /><glyph d="M415 755 244 636 210 679 364 822ZM444 151Q444 179 433 197.5Q422 216 401.5 228.5Q381 241 352.5 249.5Q324 258 289 267Q250 277 214.5 289Q179 301 151 320Q123 339 106.5 368Q90 397 90 440Q90 481 105.5 510.5Q121 540 146 558.5Q171 577 203.5 585.5Q236 594 269 594Q324 594 363.5 573.5Q403 553 422 524V580H482V396H428Q426 425 413.5 450Q401 475 380.5 493.5Q360 512 332 523Q304 534 270 534Q249 534 229 529.5Q209 525 192.5 514.5Q176 504 166 486.5Q156 469 156 444Q156 416 168 397.5Q180 379 201 366Q222 353 249 345Q276 337 306 329Q344 319 381 307.5Q418 296 446.5 277Q475 258 492.5 228.5Q510 199 510 152Q510 112 496 81Q482 50 456.5 29Q431 8 396 -3Q361 -14 319 -14Q258 -14 212.5 7.5Q167 29 145 61V0H85V193H139Q140 162 154.5 135Q169 108 193 88.5Q217 69 249 57.5Q281 46 317 46Q371 46 407.5 71.5Q444 97 444 151Z" glyph-name="Sacute" horiz-adv-x="580" unicode="&#346;" /><glyph d="M151 763 190 807 280 721 370 807 408 763 280 640ZM444 151Q444 179 433 197.5Q422 216 401.5 228.5Q381 241 352.5 249.5Q324 258 289 267Q250 277 214.5 289Q179 301 151 320Q123 339 106.5 368Q90 397 90 440Q90 481 105.5 510.5Q121 540 146 558.5Q171 577 203.5 585.5Q236 594 269 594Q324 594 363.5 573.5Q403 553 422 524V580H482V396H428Q426 425 413.5 450Q401 475 380.5 493.5Q360 512 332 523Q304 534 270 534Q249 534 229 529.5Q209 525 192.5 514.5Q176 504 166 486.5Q156 469 156 444Q156 416 168 397.5Q180 379 201 366Q222 353 249 345Q276 337 306 329Q344 319 381 307.5Q418 296 446.5 277Q475 258 492.5 228.5Q510 199 510 152Q510 112 496 81Q482 50 456.5 29Q431 8 396 -3Q361 -14 319 -14Q258 -14 212.5 7.5Q167 29 145 61V0H85V193H139Q140 162 154.5 135Q169 108 193 88.5Q217 69 249 57.5Q281 46 317 46Q371 46 407.5 71.5Q444 97 444 151Z" glyph-name="Scaron" horiz-adv-x="580" unicode="&#352;" /><glyph d="M444 151Q444 179 433 197.5Q422 216 401.5 228.5Q381 241 352.5 249.5Q324 258 289 267Q250 277 214.5 289Q179 301 151 320Q123 339 106.5 368Q90 397 90 440Q90 481 105.5 510.5Q121 540 146 558.5Q171 577 203.5 585.5Q236 594 269 594Q324 594 363.5 573.5Q403 553 422 524V580H482V396H428Q426 425 413.5 450Q401 475 380.5 493.5Q360 512 332 523Q304 534 270 534Q249 534 229 529.5Q209 525 192.5 514.5Q176 504 166 486.5Q156 469 156 444Q156 416 168 397.5Q180 379 201 366Q222 353 249 345Q276 337 306 329Q344 319 381 307.5Q418 296 446.5 277Q475 258 492.5 228.5Q510 199 510 152Q510 112 496 81Q482 50 456.5 29Q431 8 396 -3Q361 -14 319 -14H306L285 -59Q293 -57 299 -57Q337 -57 362.5 -81Q388 -105 388 -141Q388 -183 358.5 -206.5Q329 -230 288 -230Q253 -230 226.5 -213Q200 -196 187 -173L223 -146Q237 -165 251 -175.5Q265 -186 288 -186Q311 -186 325 -174.5Q339 -163 339 -142Q339 -122 325 -111Q311 -100 293 -100Q278 -100 265 -105L230 -80L263 -9Q222 -1 192 17.5Q162 36 145 61V0H85V193H139Q140 162 154.5 135Q169 108 193 88.5Q217 69 249 57.5Q281 46 317 46Q371 46 407.5 71.5Q444 97 444 151Z" glyph-name="Scedilla" horiz-adv-x="580" unicode="&#350;" /><glyph d="M280 811 408 688 370 645 280 731 190 645 151 688ZM444 151Q444 179 433 197.5Q422 216 401.5 228.5Q381 241 352.5 249.5Q324 258 289 267Q250 277 214.5 289Q179 301 151 320Q123 339 106.5 368Q90 397 90 440Q90 481 105.5 510.5Q121 540 146 558.5Q171 577 203.5 585.5Q236 594 269 594Q324 594 363.5 573.5Q403 553 422 524V580H482V396H428Q426 425 413.5 450Q401 475 380.5 493.5Q360 512 332 523Q304 534 270 534Q249 534 229 529.5Q209 525 192.5 514.5Q176 504 166 486.5Q156 469 156 444Q156 416 168 397.5Q180 379 201 366Q222 353 249 345Q276 337 306 329Q344 319 381 307.5Q418 296 446.5 277Q475 258 492.5 228.5Q510 199 510 152Q510 112 496 81Q482 50 456.5 29Q431 8 396 -3Q361 -14 319 -14Q258 -14 212.5 7.5Q167 29 145 61V0H85V193H139Q140 162 154.5 135Q169 108 193 88.5Q217 69 249 57.5Q281 46 317 46Q371 46 407.5 71.5Q444 97 444 151Z" glyph-name="Scircumflex" horiz-adv-x="580" unicode="&#348;" /><glyph d="M354 -61 292 -227H235L267 -61ZM444 151Q444 179 433 197.5Q422 216 401.5 228.5Q381 241 352.5 249.5Q324 258 289 267Q250 277 214.5 289Q179 301 151 320Q123 339 106.5 368Q90 397 90 440Q90 481 105.5 510.5Q121 540 146 558.5Q171 577 203.5 585.5Q236 594 269 594Q324 594 363.5 573.5Q403 553 422 524V580H482V396H428Q426 425 413.5 450Q401 475 380.5 493.5Q360 512 332 523Q304 534 270 534Q249 534 229 529.5Q209 525 192.5 514.5Q176 504 166 486.5Q156 469 156 444Q156 416 168 397.5Q180 379 201 366Q222 353 249 345Q276 337 306 329Q344 319 381 307.5Q418 296 446.5 277Q475 258 492.5 228.5Q510 199 510 152Q510 112 496 81Q482 50 456.5 29Q431 8 396 -3Q361 -14 319 -14Q258 -14 212.5 7.5Q167 29 145 61V0H85V193H139Q140 162 154.5 135Q169 108 193 88.5Q217 69 249 57.5Q281 46 317 46Q371 46 407.5 71.5Q444 97 444 151Z" glyph-name="Scommaaccent" horiz-adv-x="580" unicode="&#536;" /><glyph d="M468 393V521H322V59H451V0H128V59H257V521H111V393H49V580H530V393Z" glyph-name="T" horiz-adv-x="580" unicode="T" /><glyph d="M257 313V521H111V393H49V580H530V393H468V521H322V313H433V255H322V59H451V0H128V59H257V255H147V313Z" glyph-name="Tbar" horiz-adv-x="580" unicode="&#358;" /><glyph d="M161 763 200 807 289 721 379 807 418 763 289 640ZM468 393V521H322V59H451V0H128V59H257V521H111V393H49V580H530V393Z" glyph-name="Tcaron" horiz-adv-x="580" unicode="&#356;" /><glyph d="M336 -61 274 -227H217L249 -61ZM468 393V521H322V59H451V0H128V59H257V521H111V393H49V580H530V393Z" glyph-name="Tcommaaccent" horiz-adv-x="580" unicode="&#354;" /><glyph d="M192 452H317Q417 452 475 413.5Q533 375 533 295Q533 255 517.5 225Q502 195 473.5 175.5Q445 156 405 146.5Q365 137 317 137H192V59H345V0H52V59H127V521H52V580H345V521H192ZM192 393V195H308Q466 195 466 295Q466 393 308 393Z" glyph-name="Thorn" horiz-adv-x="580" unicode="&#222;" /><glyph d="M18 580H224V521H150V186Q150 155 161 129Q172 103 191.5 84.5Q211 66 236.5 56Q262 46 290 46Q319 46 344 56Q369 66 388.5 84.5Q408 103 419 129Q430 155 430 186V521H356V580H562V521H495V183Q495 139 479 102.5Q463 66 435 40Q407 14 369.5 0Q332 -14 290 -14Q248 -14 210.5 0Q173 14 145 40Q117 66 101 102.5Q85 139 85 183V521H18Z" glyph-name="U" horiz-adv-x="580" unicode="U" /><glyph d="M416 755 244 636 210 679 364 822ZM18 580H224V521H150V186Q150 155 161 129Q172 103 191.5 84.5Q211 66 236.5 56Q262 46 290 46Q319 46 344 56Q369 66 388.5 84.5Q408 103 419 129Q430 155 430 186V521H356V580H562V521H495V183Q495 139 479 102.5Q463 66 435 40Q407 14 369.5 0Q332 -14 290 -14Q248 -14 210.5 0Q173 14 145 40Q117 66 101 102.5Q85 139 85 183V521H18Z" glyph-name="Uacute" horiz-adv-x="580" unicode="&#218;" /><glyph d="M290 648Q235 648 199 680.5Q163 713 160 767L218 772Q221 743 239.5 722Q258 701 290 701Q321 701 340 722Q359 743 362 772L420 767Q417 713 381 680.5Q345 648 290 648ZM18 580H224V521H150V186Q150 155 161 129Q172 103 191.5 84.5Q211 66 236.5 56Q262 46 290 46Q319 46 344 56Q369 66 388.5 84.5Q408 103 419 129Q430 155 430 186V521H356V580H562V521H495V183Q495 139 479 102.5Q463 66 435 40Q407 14 369.5 0Q332 -14 290 -14Q248 -14 210.5 0Q173 14 145 40Q117 66 101 102.5Q85 139 85 183V521H18Z" glyph-name="Ubreve" horiz-adv-x="580" unicode="&#364;" /><glyph d="M290 807 419 684 380 640 290 727 200 640 161 684ZM18 580H224V521H150V186Q150 155 161 129Q172 103 191.5 84.5Q211 66 236.5 56Q262 46 290 46Q319 46 344 56Q369 66 388.5 84.5Q408 103 419 129Q430 155 430 186V521H356V580H562V521H495V183Q495 139 479 102.5Q463 66 435 40Q407 14 369.5 0Q332 -14 290 -14Q248 -14 210.5 0Q173 14 145 40Q117 66 101 102.5Q85 139 85 183V521H18Z" glyph-name="Ucircumflex" horiz-adv-x="580" unicode="&#219;" /><glyph d="M248 712Q248 687 231.5 671Q215 655 191 655Q168 655 151 671Q134 687 134 712Q134 737 151 753Q168 769 191 769Q215 769 231.5 753Q248 737 248 712ZM446 712Q446 687 429 671Q412 655 389 655Q365 655 348.5 671Q332 687 332 712Q332 737 348.5 753Q365 769 389 769Q412 769 429 753Q446 737 446 712ZM18 580H224V521H150V186Q150 155 161 129Q172 103 191.5 84.5Q211 66 236.5 56Q262 46 290 46Q319 46 344 56Q369 66 388.5 84.5Q408 103 419 129Q430 155 430 186V521H356V580H562V521H495V183Q495 139 479 102.5Q463 66 435 40Q407 14 369.5 0Q332 -14 290 -14Q248 -14 210.5 0Q173 14 145 40Q117 66 101 102.5Q85 139 85 183V521H18Z" glyph-name="Udieresis" horiz-adv-x="580" unicode="&#220;" /><glyph d="M217 822 371 680 337 636 166 755ZM18 580H224V521H150V186Q150 155 161 129Q172 103 191.5 84.5Q211 66 236.5 56Q262 46 290 46Q319 46 344 56Q369 66 388.5 84.5Q408 103 419 129Q430 155 430 186V521H356V580H562V521H495V183Q495 139 479 102.5Q463 66 435 40Q407 14 369.5 0Q332 -14 290 -14Q248 -14 210.5 0Q173 14 145 40Q117 66 101 102.5Q85 139 85 183V521H18Z" glyph-name="Ugrave" horiz-adv-x="580" unicode="&#217;" /><glyph d="M352 759 183 638 150 678 300 822ZM537 759 369 638 336 678 486 822ZM18 580H224V521H150V186Q150 155 161 129Q172 103 191.5 84.5Q211 66 236.5 56Q262 46 290 46Q319 46 344 56Q369 66 388.5 84.5Q408 103 419 129Q430 155 430 186V521H356V580H562V521H495V183Q495 139 479 102.5Q463 66 435 40Q407 14 369.5 0Q332 -14 290 -14Q248 -14 210.5 0Q173 14 145 40Q117 66 101 102.5Q85 139 85 183V521H18Z" glyph-name="Uhungarumlaut" horiz-adv-x="580" unicode="&#368;" /><glyph d="M167 716H413V657H167ZM18 580H224V521H150V186Q150 155 161 129Q172 103 191.5 84.5Q211 66 236.5 56Q262 46 290 46Q319 46 344 56Q369 66 388.5 84.5Q408 103 419 129Q430 155 430 186V521H356V580H562V521H495V183Q495 139 479 102.5Q463 66 435 40Q407 14 369.5 0Q332 -14 290 -14Q248 -14 210.5 0Q173 14 145 40Q117 66 101 102.5Q85 139 85 183V521H18Z" glyph-name="Umacron" horiz-adv-x="580" unicode="&#362;" /><glyph d="M18 580H224V521H150V186Q150 155 161.5 129Q173 103 192 84.5Q211 66 236.5 56Q262 46 290 46Q318 46 343.5 56Q369 66 388 84.5Q407 103 418.5 129Q430 155 430 186V521H356V580H562V521H495V184Q495 116 461.5 71Q428 26 380 3Q326 -24 294 -56.5Q262 -89 262 -116Q262 -131 271 -142Q280 -153 300 -153Q319 -153 338 -142.5Q357 -132 375 -115L405 -152Q382 -175 354.5 -190.5Q327 -206 292 -206Q250 -206 226.5 -182.5Q203 -159 203 -123Q203 -92 219.5 -65.5Q236 -39 271 -13Q233 -10 199.5 5Q166 20 140.5 45.5Q115 71 100 106Q85 141 85 184V521H18Z" glyph-name="Uogonek" horiz-adv-x="580" unicode="&#370;" /><glyph d="M391 733Q391 691 362 661.5Q333 632 290 632Q247 632 218 661.5Q189 691 189 733Q189 776 218 805Q247 834 290 834Q333 834 362 805Q391 776 391 733ZM339 733Q339 754 326 769Q313 784 290 784Q267 784 254 769Q241 754 241 733Q241 712 254 697Q267 682 290 682Q313 682 326 697Q339 712 339 733ZM18 580H224V521H150V186Q150 155 161 129Q172 103 191.5 84.5Q211 66 236.5 56Q262 46 290 46Q319 46 344 56Q369 66 388.5 84.5Q408 103 419 129Q430 155 430 186V521H356V580H562V521H495V183Q495 139 479 102.5Q463 66 435 40Q407 14 369.5 0Q332 -14 290 -14Q248 -14 210.5 0Q173 14 145 40Q117 66 101 102.5Q85 139 85 183V521H18Z" glyph-name="Uring" horiz-adv-x="580" unicode="&#366;" /><glyph d="M439 719Q438 707 431 693Q424 679 412.5 667Q401 655 385 647Q369 639 349 639Q328 639 312.5 646.5Q297 654 284 662.5Q271 671 259.5 678.5Q248 686 235 686Q216 686 205.5 673.5Q195 661 193 646L141 662Q142 675 148.5 689Q155 703 166.5 715Q178 727 194 734.5Q210 742 230 742Q252 742 267.5 734.5Q283 727 296 718.5Q309 710 320.5 702.5Q332 695 345 695Q364 695 374 707.5Q384 720 387 735ZM18 580H224V521H150V186Q150 155 161 129Q172 103 191.5 84.5Q211 66 236.5 56Q262 46 290 46Q319 46 344 56Q369 66 388.5 84.5Q408 103 419 129Q430 155 430 186V521H356V580H562V521H495V183Q495 139 479 102.5Q463 66 435 40Q407 14 369.5 0Q332 -14 290 -14Q248 -14 210.5 0Q173 14 145 40Q117 66 101 102.5Q85 139 85 183V521H18Z" glyph-name="Utilde" horiz-adv-x="580" unicode="&#360;" /><glyph d="M440 521H362V580H564V521H505L335 0H245L75 521H16V580H221V521H144L291 64Z" glyph-name="V" horiz-adv-x="580" unicode="V" /><glyph d="M391 0 290 341 189 0H111L55 521H12V580H199V521H121L164 102L258 420H324L417 102L461 521H381V580H568V521H525L469 0Z" glyph-name="W" horiz-adv-x="580" unicode="W" /><glyph d="M391 0 290 341 189 0H111L55 521H12V580H199V521H121L164 102L258 420H324L417 102L461 521H381V580H568V521H525L469 0ZM412 755 241 636 207 679 361 822Z" glyph-name="Wacute" horiz-adv-x="580" unicode="&#7810;" /><glyph d="M391 0 290 341 189 0H111L55 521H12V580H199V521H121L164 102L258 420H324L417 102L461 521H381V580H568V521H525L469 0ZM290 806 419 683 380 640 290 726 200 640 161 683Z" glyph-name="Wcircumflex" horiz-adv-x="580" unicode="&#372;" /><glyph d="M391 0 290 341 189 0H111L55 521H12V580H199V521H121L164 102L258 420H324L417 102L461 521H381V580H568V521H525L469 0ZM248 715Q248 689 231.5 673.5Q215 658 191 658Q168 658 151 673.5Q134 689 134 715Q134 740 151 756Q168 772 191 772Q215 772 231.5 756Q248 740 248 715ZM446 715Q446 689 429 673.5Q412 658 389 658Q365 658 348.5 673.5Q332 689 332 715Q332 740 348.5 756Q365 772 389 772Q412 772 429 756Q446 740 446 715Z" glyph-name="Wdieresis" horiz-adv-x="580" unicode="&#7812;" /><glyph d="M391 0 290 341 189 0H111L55 521H12V580H199V521H121L164 102L258 420H324L417 102L461 521H381V580H568V521H525L469 0ZM219 822 373 680 339 636 168 755Z" glyph-name="Wgrave" horiz-adv-x="580" unicode="&#7808;" /><glyph d="M19 0V59H66L249 298L78 521H31V580H225V521H159L291 348L423 521H358V580H549V521H502L330 299L515 59H561V0H361V59H433L288 249L145 59H217V0Z" glyph-name="X" horiz-adv-x="580" unicode="X" /><glyph d="M560 580V521H505L323 245V59H452V0H129V59H258V245L75 521H21V580H222V521H151L291 305L431 521H358V580Z" glyph-name="Y" horiz-adv-x="580" unicode="Y" /><glyph d="M560 580V521H505L323 245V59H452V0H129V59H258V245L75 521H21V580H222V521H151L291 305L431 521H358V580ZM423 749 251 630 217 674 371 816Z" glyph-name="Yacute" horiz-adv-x="580" unicode="&#221;" /><glyph d="M560 580V521H505L323 245V59H452V0H129V59H258V245L75 521H21V580H222V521H151L291 305L431 521H358V580ZM290 807 419 684 380 640 290 727 200 640 161 684Z" glyph-name="Ycircumflex" horiz-adv-x="580" unicode="&#374;" /><glyph d="M560 580V521H505L323 245V59H452V0H129V59H258V245L75 521H21V580H222V521H151L291 305L431 521H358V580ZM248 715Q248 689 231.5 673.5Q215 658 191 658Q168 658 151 673.5Q134 689 134 715Q134 740 151 756Q168 772 191 772Q215 772 231.5 756Q248 740 248 715ZM446 715Q446 689 429 673.5Q412 658 389 658Q365 658 348.5 673.5Q332 689 332 715Q332 740 348.5 756Q365 772 389 772Q412 772 429 756Q446 740 446 715Z" glyph-name="Ydieresis" horiz-adv-x="580" unicode="&#376;" /><glyph d="M74 0V71L425 521H156V406H94V580H494V509L143 59H445V182H507V0Z" glyph-name="Z" horiz-adv-x="580" unicode="Z" /><glyph d="M408 755 236 636 203 679 356 822ZM74 0V71L425 521H156V406H94V580H494V509L143 59H445V182H507V0Z" glyph-name="Zacute" horiz-adv-x="580" unicode="&#377;" /><glyph d="M165 763 204 807 294 721 384 807 423 763 294 640ZM74 0V71L425 521H156V406H94V580H494V509L143 59H445V182H507V0Z" glyph-name="Zcaron" horiz-adv-x="580" unicode="&#381;" /><glyph d="M356 715Q356 687 338 670Q320 653 294 653Q268 653 250 670Q232 687 232 715Q232 742 250 759Q268 776 294 776Q320 776 338 759Q356 742 356 715ZM74 0V71L425 521H156V406H94V580H494V509L143 59H445V182H507V0Z" glyph-name="Zdotaccent" horiz-adv-x="580" unicode="&#379;" /><glyph d="M456 59H523V0H393V57Q373 24 329 5Q285 -14 235 -14Q203 -14 174 -5.5Q145 3 123.5 19.5Q102 36 89.5 60.5Q77 85 77 118Q77 156 94 182.5Q111 209 139 225.5Q167 242 201.5 249.5Q236 257 270 257Q308 257 339 251Q370 245 393 239V278Q393 305 383.5 324Q374 343 358 355Q342 367 321.5 373Q301 379 278 379Q238 379 205.5 362.5Q173 346 147 319L105 363Q130 389 172.5 412.5Q215 436 279 436Q317 436 349.5 426Q382 416 405.5 396Q429 376 442.5 347Q456 318 456 279ZM393 182Q368 191 337 196.5Q306 202 273 202Q248 202 224 198Q200 194 181.5 184Q163 174 152 158Q141 142 141 119Q141 80 170 61Q199 42 239 42Q267 42 294.5 50.5Q322 59 344 75Q366 91 379.5 113.5Q393 136 393 163Z" glyph-name="a" horiz-adv-x="580" unicode="a" /><glyph d="M393 608 221 489 187 532 341 674ZM456 59H523V0H393V57Q373 24 329 5Q285 -14 235 -14Q203 -14 174 -5.5Q145 3 123.5 19.5Q102 36 89.5 60.5Q77 85 77 118Q77 156 94 182.5Q111 209 139 225.5Q167 242 201.5 249.5Q236 257 270 257Q308 257 339 251Q370 245 393 239V278Q393 305 383.5 324Q374 343 358 355Q342 367 321.5 373Q301 379 278 379Q238 379 205.5 362.5Q173 346 147 319L105 363Q130 389 172.5 412.5Q215 436 279 436Q317 436 349.5 426Q382 416 405.5 396Q429 376 442.5 347Q456 318 456 279ZM393 182Q368 191 337 196.5Q306 202 273 202Q248 202 224 198Q200 194 181.5 184Q163 174 152 158Q141 142 141 119Q141 80 170 61Q199 42 239 42Q267 42 294.5 50.5Q322 59 344 75Q366 91 379.5 113.5Q393 136 393 163Z" glyph-name="aacute" horiz-adv-x="580" unicode="&#225;" /><glyph d="M287 502Q233 502 197 535Q161 568 158 621L216 626Q218 597 237 576Q256 555 287 555Q319 555 338 576Q357 597 359 626L417 621Q414 568 378 535Q342 502 287 502ZM456 59H523V0H393V57Q373 24 329 5Q285 -14 235 -14Q203 -14 174 -5.5Q145 3 123.5 19.5Q102 36 89.5 60.5Q77 85 77 118Q77 156 94 182.5Q111 209 139 225.5Q167 242 201.5 249.5Q236 257 270 257Q308 257 339 251Q370 245 393 239V278Q393 305 383.5 324Q374 343 358 355Q342 367 321.5 373Q301 379 278 379Q238 379 205.5 362.5Q173 346 147 319L105 363Q130 389 172.5 412.5Q215 436 279 436Q317 436 349.5 426Q382 416 405.5 396Q429 376 442.5 347Q456 318 456 279ZM393 182Q368 191 337 196.5Q306 202 273 202Q248 202 224 198Q200 194 181.5 184Q163 174 152 158Q141 142 141 119Q141 80 170 61Q199 42 239 42Q267 42 294.5 50.5Q322 59 344 75Q366 91 379.5 113.5Q393 136 393 163Z" glyph-name="abreve" horiz-adv-x="580" unicode="&#259;" /><glyph d="M283 659 412 537 373 493 283 579 193 493 154 537ZM456 59H523V0H393V57Q373 24 329 5Q285 -14 235 -14Q203 -14 174 -5.5Q145 3 123.5 19.5Q102 36 89.5 60.5Q77 85 77 118Q77 156 94 182.5Q111 209 139 225.5Q167 242 201.5 249.5Q236 257 270 257Q308 257 339 251Q370 245 393 239V278Q393 305 383.5 324Q374 343 358 355Q342 367 321.5 373Q301 379 278 379Q238 379 205.5 362.5Q173 346 147 319L105 363Q130 389 172.5 412.5Q215 436 279 436Q317 436 349.5 426Q382 416 405.5 396Q429 376 442.5 347Q456 318 456 279ZM393 182Q368 191 337 196.5Q306 202 273 202Q248 202 224 198Q200 194 181.5 184Q163 174 152 158Q141 142 141 119Q141 80 170 61Q199 42 239 42Q267 42 294.5 50.5Q322 59 344 75Q366 91 379.5 113.5Q393 136 393 163Z" glyph-name="acircumflex" horiz-adv-x="580" unicode="&#226;" /><glyph d="M393 608 221 489 187 532 341 674Z" glyph-name="acute" horiz-adv-x="580" unicode="&#180;" /><glyph d="M238 569Q238 544 221.5 528Q205 512 181 512Q157 512 140.5 528Q124 544 124 569Q124 594 140.5 610Q157 626 181 626Q205 626 221.5 610Q238 594 238 569ZM436 569Q436 544 419 528Q402 512 379 512Q355 512 338.5 528Q322 544 322 569Q322 594 338.5 610Q355 626 379 626Q402 626 419 610Q436 594 436 569ZM456 59H523V0H393V57Q373 24 329 5Q285 -14 235 -14Q203 -14 174 -5.5Q145 3 123.5 19.5Q102 36 89.5 60.5Q77 85 77 118Q77 156 94 182.5Q111 209 139 225.5Q167 242 201.5 249.5Q236 257 270 257Q308 257 339 251Q370 245 393 239V278Q393 305 383.5 324Q374 343 358 355Q342 367 321.5 373Q301 379 278 379Q238 379 205.5 362.5Q173 346 147 319L105 363Q130 389 172.5 412.5Q215 436 279 436Q317 436 349.5 426Q382 416 405.5 396Q429 376 442.5 347Q456 318 456 279ZM393 182Q368 191 337 196.5Q306 202 273 202Q248 202 224 198Q200 194 181.5 184Q163 174 152 158Q141 142 141 119Q141 80 170 61Q199 42 239 42Q267 42 294.5 50.5Q322 59 344 75Q366 91 379.5 113.5Q393 136 393 163Z" glyph-name="adieresis" horiz-adv-x="580" unicode="&#228;" /><glyph d="M553 61Q531 29 497 7.5Q463 -14 419 -14Q372 -14 339 10Q306 34 286 79Q274 52 257 34Q240 16 221 5.5Q202 -5 182 -9.5Q162 -14 143 -14Q118 -14 95.5 -5.5Q73 3 56 19Q39 35 29 58Q19 81 19 111Q19 148 33.5 174Q48 200 71.5 216Q95 232 124 239.5Q153 247 182 247H252V273Q251 326 229 352Q207 378 175 378Q147 378 123.5 363.5Q100 349 82 325L40 365Q62 392 95 414Q128 436 176 436Q216 436 246.5 415Q277 394 293 353Q311 392 341.5 414Q372 436 413 436Q448 436 476 418.5Q504 401 523 370Q542 339 552 297Q562 255 562 206V193H317Q321 126 348.5 85Q376 44 420 44Q449 44 472 60Q495 76 512 101ZM252 193H189Q168 193 148.5 188.5Q129 184 114 174.5Q99 165 90 149.5Q81 134 81 112Q81 80 101 61.5Q121 43 150 43Q168 43 186 51.5Q204 60 219 75.5Q234 91 243 113Q252 135 252 162ZM495 247Q492 304 469.5 341Q447 378 413 378Q375 378 350 341Q325 304 320 247Z" glyph-name="ae" horiz-adv-x="580" unicode="&#230;" /><glyph d="M235 674 389 533 355 489 184 608ZM456 59H523V0H393V57Q373 24 329 5Q285 -14 235 -14Q203 -14 174 -5.5Q145 3 123.5 19.5Q102 36 89.5 60.5Q77 85 77 118Q77 156 94 182.5Q111 209 139 225.5Q167 242 201.5 249.5Q236 257 270 257Q308 257 339 251Q370 245 393 239V278Q393 305 383.5 324Q374 343 358 355Q342 367 321.5 373Q301 379 278 379Q238 379 205.5 362.5Q173 346 147 319L105 363Q130 389 172.5 412.5Q215 436 279 436Q317 436 349.5 426Q382 416 405.5 396Q429 376 442.5 347Q456 318 456 279ZM393 182Q368 191 337 196.5Q306 202 273 202Q248 202 224 198Q200 194 181.5 184Q163 174 152 158Q141 142 141 119Q141 80 170 61Q199 42 239 42Q267 42 294.5 50.5Q322 59 344 75Q366 91 379.5 113.5Q393 136 393 163Z" glyph-name="agrave" horiz-adv-x="580" unicode="&#224;" /><glyph d="M159 570H405V511H159ZM456 59H523V0H393V57Q373 24 329 5Q285 -14 235 -14Q203 -14 174 -5.5Q145 3 123.5 19.5Q102 36 89.5 60.5Q77 85 77 118Q77 156 94 182.5Q111 209 139 225.5Q167 242 201.5 249.5Q236 257 270 257Q308 257 339 251Q370 245 393 239V278Q393 305 383.5 324Q374 343 358 355Q342 367 321.5 373Q301 379 278 379Q238 379 205.5 362.5Q173 346 147 319L105 363Q130 389 172.5 412.5Q215 436 279 436Q317 436 349.5 426Q382 416 405.5 396Q429 376 442.5 347Q456 318 456 279ZM393 182Q368 191 337 196.5Q306 202 273 202Q248 202 224 198Q200 194 181.5 184Q163 174 152 158Q141 142 141 119Q141 80 170 61Q199 42 239 42Q267 42 294.5 50.5Q322 59 344 75Q366 91 379.5 113.5Q393 136 393 163Z" glyph-name="amacron" horiz-adv-x="580" unicode="&#257;" /><glyph d="M367 294H539V236H482Q476 191 461 155Q446 119 428 94L458 59H560V0H427L385 51Q343 13 297.5 -0.5Q252 -14 214 -14Q175 -14 140.5 -3Q106 8 80.5 29.5Q55 51 40.5 82Q26 113 26 153Q26 186 36 210.5Q46 235 64 255Q82 275 106.5 291Q131 307 160 322L142 345Q119 372 106 402.5Q93 433 93 465Q93 524 132 559Q171 594 231 594Q260 594 285 585Q310 576 329.5 559.5Q349 543 360 518.5Q371 494 371 463Q371 433 361.5 409.5Q352 386 335.5 367Q319 348 298 332.5Q277 317 254 305L388 144Q413 188 420 236H367ZM219 46Q254 46 287 58Q320 70 346 97L198 276Q151 251 121.5 225Q92 199 92 153Q92 105 125.5 75.5Q159 46 219 46ZM158 466Q158 446 166 424.5Q174 403 191 382L216 351Q259 374 283 400Q307 426 307 463Q307 498 285.5 517Q264 536 233 536Q202 536 180 518Q158 500 158 466Z" glyph-name="ampersand" horiz-adv-x="580" unicode="&amp;" /><glyph d="M393 57Q373 24 329 5Q285 -14 235 -14Q203 -14 174 -5.5Q145 3 123.5 19.5Q102 36 89.5 60.5Q77 85 77 118Q77 156 94 182.5Q111 209 139 225.5Q167 242 201.5 249.5Q236 257 270 257Q307 257 338.5 251Q370 245 393 239V278Q393 305 383.5 324Q374 343 358 355Q342 367 321.5 373Q301 379 278 379Q238 379 205.5 362.5Q173 346 147 319L105 363Q130 389 173 412.5Q216 436 279 436Q317 436 349.5 426Q382 416 405.5 396Q429 376 442.5 347Q456 318 456 279V59H523V0H477Q424 -29 393.5 -58.5Q363 -88 363 -116Q363 -131 372.5 -142Q382 -153 402 -153Q421 -153 439.5 -142.5Q458 -132 476 -115L507 -152Q483 -175 455.5 -190.5Q428 -206 394 -206Q352 -206 328 -182.5Q304 -159 304 -123Q304 -88 326 -58.5Q348 -29 393 0ZM393 182Q369 191 337.5 196.5Q306 202 273 202Q248 202 224 198Q200 194 181.5 184Q163 174 152 158Q141 142 141 119Q141 80 170 61Q199 42 239 42Q267 42 294.5 50.5Q322 59 344 75Q366 91 379.5 113.5Q393 136 393 163Z" glyph-name="aogonek" horiz-adv-x="580" unicode="&#261;" /><glyph d="M509 405Q508 389 499 369Q490 349 474.5 332Q459 315 436 303.5Q413 292 383 292Q351 292 326.5 304Q302 316 281 331Q260 346 239.5 358Q219 370 196 370Q180 370 168 363Q156 356 148 346Q140 336 135 324Q130 312 128 301L71 318Q73 335 81.5 354.5Q90 374 105.5 391Q121 408 144 419.5Q167 431 197 431Q229 431 253.5 419Q278 407 299 392Q320 377 340.5 365Q361 353 384 353Q401 353 412.5 359.5Q424 366 432 376.5Q440 387 445 399Q450 411 452 422ZM509 234Q508 218 499 198Q490 178 474.5 161Q459 144 436 132.5Q413 121 383 121Q351 121 326.5 133Q302 145 281 160Q260 175 239.5 187Q219 199 196 199Q180 199 168 192.5Q156 186 148 175.5Q140 165 135 153Q130 141 128 130L71 147Q73 164 81.5 183.5Q90 203 105.5 220Q121 237 144 248.5Q167 260 197 260Q229 260 253.5 248Q278 236 299 221.5Q320 207 340.5 195Q361 183 384 183Q401 183 412.5 189.5Q424 196 432 206Q440 216 445 228Q450 240 452 251Z" glyph-name="approxequal" horiz-adv-x="580" unicode="&#8776;" /><glyph d="M386 584Q386 563 378 544.5Q370 526 356.5 512.5Q343 499 324.5 491Q306 483 285 483Q242 483 212.5 512.5Q183 542 183 584Q183 627 212.5 656Q242 685 285 685Q327 685 356.5 656Q386 627 386 584ZM333 584Q333 605 320 620Q307 635 285 635Q262 635 249 620Q236 605 236 584Q236 563 249 548Q262 533 285 533Q307 533 320 548Q333 563 333 584ZM456 59H523V0H393V57Q373 24 329 5Q285 -14 235 -14Q203 -14 174 -5.5Q145 3 123.5 19.5Q102 36 89.5 60.5Q77 85 77 118Q77 156 94 182.5Q111 209 139 225.5Q167 242 201.5 249.5Q236 257 270 257Q308 257 339 251Q370 245 393 239V278Q393 305 383.5 324Q374 343 358 355Q342 367 321.5 373Q301 379 278 379Q238 379 205.5 362.5Q173 346 147 319L105 363Q130 389 172.5 412.5Q215 436 279 436Q317 436 349.5 426Q382 416 405.5 396Q429 376 442.5 347Q456 318 456 279ZM393 182Q368 191 337 196.5Q306 202 273 202Q248 202 224 198Q200 194 181.5 184Q163 174 152 158Q141 142 141 119Q141 80 170 61Q199 42 239 42Q267 42 294.5 50.5Q322 59 344 75Q366 91 379.5 113.5Q393 136 393 163Z" glyph-name="aring" horiz-adv-x="580" unicode="&#229;" /><glyph d="M290 607 471 382 424 344 289 513 155 344 109 382Z" glyph-name="asciicircum" horiz-adv-x="580" unicode="^" /><glyph d="M509 314Q508 297 499 276.5Q490 256 474.5 238.5Q459 221 436 209Q413 197 383 197Q351 197 326.5 210.5Q302 224 281 240Q260 256 239.5 269.5Q219 283 196 283Q180 283 168 276Q156 269 148 258Q140 247 135 234Q130 221 128 210L71 227Q73 244 81.5 264.5Q90 285 105.5 302.5Q121 320 144 332Q167 344 197 344Q229 344 253.5 330.5Q278 317 299 301Q320 285 340.5 271.5Q361 258 384 258Q401 258 412.5 265Q424 272 432 283Q440 294 444.5 307Q449 320 452 331Z" glyph-name="asciitilde" horiz-adv-x="580" unicode="~" /><glyph d="M215 337 170 371 243 473 124 512 142 567 261 527V652H319V527L438 567L456 512L337 473L410 371L365 337L290 438Z" glyph-name="asterisk" horiz-adv-x="580" unicode="*" /><glyph d="M287 -42Q233 -42 192 -24Q151 -6 123.5 26Q96 58 82 102Q68 146 68 198V385Q68 438 82 482.5Q96 527 124 560Q152 593 192.5 611.5Q233 630 285 630Q337 630 375.5 612Q414 594 439.5 564Q465 534 478 495Q491 456 491 415V218H542V162H432V211Q418 185 389.5 169Q361 153 326 153Q301 153 278.5 161.5Q256 170 239 186.5Q222 203 212.5 226Q203 249 203 278Q203 315 216 341Q229 367 250.5 383.5Q272 400 299 407.5Q326 415 354 415Q375 415 395 409.5Q415 404 431 397V417Q431 446 422.5 474Q414 502 396 524Q378 546 350.5 559.5Q323 573 285 573Q246 573 217 558.5Q188 544 168.5 519Q149 494 139.5 459.5Q130 425 130 385V198Q130 159 140 126Q150 93 170 68Q190 43 219 29Q248 15 287 15Q329 15 359 31.5Q389 48 415 76L459 37Q429 -1 386.5 -21.5Q344 -42 287 -42ZM431 341Q416 349 396 354.5Q376 360 355 360Q318 360 290.5 341.5Q263 323 263 281Q263 246 283.5 227.5Q304 209 334 209Q351 209 368.5 216.5Q386 224 400 238Q414 252 422.5 273Q431 294 431 321Z" glyph-name="at" horiz-adv-x="580" unicode="@" /><glyph d="M432 572Q431 560 424 546Q417 532 405.5 520Q394 508 378 500.5Q362 493 342 493Q321 493 305.5 500Q290 507 277 516Q264 525 252.5 532Q241 539 228 539Q209 539 198.5 526.5Q188 514 186 499L134 516Q135 528 141.5 542Q148 556 159.5 568Q171 580 187 587.5Q203 595 223 595Q245 595 260.5 588Q276 581 289 572Q302 563 313.5 556Q325 549 338 549Q357 549 367 561.5Q377 574 380 589ZM456 59H523V0H393V57Q373 24 329 5Q285 -14 235 -14Q203 -14 174 -5.5Q145 3 123.5 19.5Q102 36 89.5 60.5Q77 85 77 118Q77 156 94 182.5Q111 209 139 225.5Q167 242 201.5 249.5Q236 257 270 257Q308 257 339 251Q370 245 393 239V278Q393 305 383.5 324Q374 343 358 355Q342 367 321.5 373Q301 379 278 379Q238 379 205.5 362.5Q173 346 147 319L105 363Q130 389 172.5 412.5Q215 436 279 436Q317 436 349.5 426Q382 416 405.5 396Q429 376 442.5 347Q456 318 456 279ZM393 182Q368 191 337 196.5Q306 202 273 202Q248 202 224 198Q200 194 181.5 184Q163 174 152 158Q141 142 141 119Q141 80 170 61Q199 42 239 42Q267 42 294.5 50.5Q322 59 344 75Q366 91 379.5 113.5Q393 136 393 163Z" glyph-name="atilde" horiz-adv-x="580" unicode="&#227;" /><glyph d="M34 59H100V557H34V616H162V353Q181 386 223 411Q265 436 323 436Q368 436 407 419Q446 402 474 372Q502 342 518 301Q534 260 534 211Q534 162 518 121Q502 80 474 50Q446 20 407 3Q368 -14 323 -14Q265 -14 223 11.5Q181 37 162 70V0H34ZM469 211Q469 247 458 277.5Q447 308 427 330.5Q407 353 379.5 365.5Q352 378 319 378Q285 378 256.5 366Q228 354 207 333Q186 312 174 283.5Q162 255 162 222V201Q162 168 174 139Q186 110 207 89Q228 68 256.5 56Q285 44 319 44Q352 44 379.5 57Q407 70 427 92.5Q447 115 458 145.5Q469 176 469 211Z" glyph-name="b" horiz-adv-x="580" unicode="b" /><glyph d="M74 649 130 677 506 -91 451 -118Z" glyph-name="backslash" horiz-adv-x="580" unicode="\" /><glyph d="M321 657V-138H259V657Z" glyph-name="bar" horiz-adv-x="580" unicode="|" /><glyph d="M489 426Q489 376 464 345Q439 314 401 300Q455 287 489 251.5Q523 216 523 162Q523 89 471 50Q419 11 327 7V-96H271V7H186V-96H130V7H49V66H123V514H49V573H130V670H186V573H271V670H327V571Q402 564 445.5 528Q489 492 489 426ZM186 66H298Q380 66 419 90.5Q458 115 458 164Q458 215 415 241.5Q372 268 291 268H186ZM186 325H283Q424 325 424 422Q424 514 283 514H186Z" glyph-name="bitcoin" horiz-adv-x="580" unicode="&#62136;" /><glyph d="M305 12Q305 -36 323 -57.5Q341 -79 378 -79H406V-138H375Q339 -138 314 -127Q289 -116 273.5 -96Q258 -76 251 -48.5Q244 -21 244 12V136Q244 178 223 201Q202 224 160 225V295Q202 296 223 319Q244 342 244 384V507Q244 574 273 615.5Q302 657 375 657H406V599H378Q305 599 305 507V377Q305 331 285.5 299.5Q266 268 225 260Q266 252 285.5 221.5Q305 191 305 143Z" glyph-name="braceleft" horiz-adv-x="580" unicode="{" /><glyph d="M275 507Q275 599 202 599H174V657H205Q278 657 307 615.5Q336 574 336 507V383Q336 297 420 294V225Q336 222 336 135V12Q336 -21 329 -48.5Q322 -76 306.5 -96Q291 -116 266 -127Q241 -138 205 -138H174V-79H202Q239 -79 257 -57.5Q275 -36 275 12V142Q275 189 294.5 220Q314 251 355 259Q314 267 294.5 298.5Q275 330 275 377Z" glyph-name="braceright" horiz-adv-x="580" unicode="}" /><glyph d="M251 598V-79H410V-138H190V657H410V598Z" glyph-name="bracketleft" horiz-adv-x="580" unicode="[" /><glyph d="M170 598V657H390V-138H170V-79H329V598Z" glyph-name="bracketright" horiz-adv-x="580" unicode="]" /><glyph d="M290 502Q235 502 199 535Q163 568 160 621L218 626Q221 597 239.5 576Q258 555 290 555Q321 555 340 576Q359 597 362 626L420 621Q417 568 381 535Q345 502 290 502Z" glyph-name="breve" horiz-adv-x="580" unicode="&#728;" /><glyph d="M321 207V-138H259V207ZM259 312V657H321V312Z" glyph-name="brokenbar" horiz-adv-x="580" unicode="&#166;" /><glyph d="M155 289Q155 317 165.5 341.5Q176 366 194.5 384.5Q213 403 237.5 413.5Q262 424 290 424Q318 424 342.5 413.5Q367 403 385.5 384.5Q404 366 414.5 341.5Q425 317 425 289Q425 261 414.5 236.5Q404 212 385.5 193.5Q367 175 342.5 164.5Q318 154 290 154Q262 154 237.5 164.5Q213 175 194.5 193.5Q176 212 165.5 236.5Q155 261 155 289Z" glyph-name="bullet" horiz-adv-x="580" unicode="&#8226;" /><glyph d="M446 262Q441 312 401.5 345Q362 378 302 378Q268 378 238 365.5Q208 353 185.5 330.5Q163 308 150 278Q137 248 137 212Q137 176 150 145.5Q163 115 185.5 92.5Q208 70 239 57Q270 44 307 44Q359 44 400 65Q441 86 468 116L511 73Q476 35 424 10.5Q372 -14 306 -14Q254 -14 210.5 3Q167 20 136.5 50Q106 80 89 121.5Q72 163 72 212Q72 260 89.5 301Q107 342 138 372Q169 402 210.5 419Q252 436 300 436Q353 436 388.5 416.5Q424 397 439 373V422H497V262Z" glyph-name="c" horiz-adv-x="580" unicode="c" /><glyph d="M408 608 236 489 203 532 357 674ZM446 262Q441 312 401.5 345Q362 378 302 378Q268 378 238 365.5Q208 353 185.5 330.5Q163 308 150 278Q137 248 137 212Q137 176 150 145.5Q163 115 185.5 92.5Q208 70 239 57Q270 44 307 44Q359 44 400 65Q441 86 468 116L511 73Q476 35 424 10.5Q372 -14 306 -14Q254 -14 210.5 3Q167 20 136.5 50Q106 80 89 121.5Q72 163 72 212Q72 260 89.5 301Q107 342 138 372Q169 402 210.5 419Q252 436 300 436Q353 436 388.5 416.5Q424 397 439 373V422H497V262Z" glyph-name="cacute" horiz-adv-x="580" unicode="&#263;" /><glyph d="M161 616 200 659 290 573 380 659 419 616 290 493Z" glyph-name="caron" horiz-adv-x="580" unicode="&#711;" /><glyph d="M360 649 272 477 220 497 281 680Z" glyph-name="caronSlovak" horiz-adv-x="580" unicode="&#58387;" /><glyph d="M173 616 212 659 302 573 391 659 430 616 302 493ZM446 262Q441 312 401.5 345Q362 378 302 378Q268 378 238 365.5Q208 353 185.5 330.5Q163 308 150 278Q137 248 137 212Q137 176 150 145.5Q163 115 185.5 92.5Q208 70 239 57Q270 44 307 44Q359 44 400 65Q441 86 468 116L511 73Q476 35 424 10.5Q372 -14 306 -14Q254 -14 210.5 3Q167 20 136.5 50Q106 80 89 121.5Q72 163 72 212Q72 260 89.5 301Q107 342 138 372Q169 402 210.5 419Q252 436 300 436Q353 436 388.5 416.5Q424 397 439 373V422H497V262Z" glyph-name="ccaron" horiz-adv-x="580" unicode="&#269;" /><glyph d="M446 262Q441 312 401.5 345Q362 378 302 378Q268 378 238 365.5Q208 353 185.5 330.5Q163 308 150 278Q137 248 137 212Q137 176 150 145.5Q163 115 185.5 92.5Q208 70 239 57Q270 44 307 44Q359 44 400 65Q441 86 468 116L511 73Q478 36 428.5 12Q379 -12 316 -14L295 -59Q303 -57 309 -57Q346 -57 372 -81Q398 -105 398 -141Q398 -183 368.5 -206.5Q339 -230 298 -230Q262 -230 236 -213Q210 -196 197 -173L233 -146Q247 -165 261 -175.5Q275 -186 298 -186Q321 -186 335 -174.5Q349 -163 349 -142Q349 -122 335 -111Q321 -100 302 -100Q288 -100 275 -105L240 -80L272 -12Q227 -7 190 12Q153 31 126.5 60.5Q100 90 86 128.5Q72 167 72 212Q72 260 89.5 301Q107 342 138 372Q169 402 210.5 419Q252 436 300 436Q353 436 388.5 416.5Q424 397 439 373V422H497V262Z" glyph-name="ccedilla" horiz-adv-x="580" unicode="&#231;" /><glyph d="M302 659 430 537 391 493 302 579 212 493 173 537ZM446 262Q441 312 401.5 345Q362 378 302 378Q268 378 238 365.5Q208 353 185.5 330.5Q163 308 150 278Q137 248 137 212Q137 176 150 145.5Q163 115 185.5 92.5Q208 70 239 57Q270 44 307 44Q359 44 400 65Q441 86 468 116L511 73Q476 35 424 10.5Q372 -14 306 -14Q254 -14 210.5 3Q167 20 136.5 50Q106 80 89 121.5Q72 163 72 212Q72 260 89.5 301Q107 342 138 372Q169 402 210.5 419Q252 436 300 436Q353 436 388.5 416.5Q424 397 439 373V422H497V262Z" glyph-name="ccircumflex" horiz-adv-x="580" unicode="&#265;" /><glyph d="M364 569Q364 542 346.5 524.5Q329 507 303 507Q277 507 259 524.5Q241 542 241 569Q241 596 259 613.5Q277 631 303 631Q329 631 346.5 613.5Q364 596 364 569ZM446 262Q441 312 401.5 345Q362 378 302 378Q268 378 238 365.5Q208 353 185.5 330.5Q163 308 150 278Q137 248 137 212Q137 176 150 145.5Q163 115 185.5 92.5Q208 70 239 57Q270 44 307 44Q359 44 400 65Q441 86 468 116L511 73Q476 35 424 10.5Q372 -14 306 -14Q254 -14 210.5 3Q167 20 136.5 50Q106 80 89 121.5Q72 163 72 212Q72 260 89.5 301Q107 342 138 372Q169 402 210.5 419Q252 436 300 436Q353 436 388.5 416.5Q424 397 439 373V422H497V262Z" glyph-name="cdotaccent" horiz-adv-x="580" unicode="&#267;" /><glyph d="M225 -146Q239 -165 253 -175.5Q267 -186 290 -186Q313 -186 327 -174.5Q341 -163 341 -142Q341 -122 327 -111Q313 -100 295 -100Q280 -100 267 -105L232 -80L270 0H315L287 -59Q293 -57 301 -57Q338 -57 364 -81Q390 -105 390 -141Q390 -183 360.5 -206.5Q331 -230 290 -230Q255 -230 228.5 -213Q202 -196 189 -173Z" glyph-name="cedilla" horiz-adv-x="580" unicode="&#184;" /><glyph d="M273 -54V63Q228 69 192 88Q156 107 130 136.5Q104 166 90 204.5Q76 243 76 287Q76 332 91 371Q106 410 132 439Q158 468 194.5 487Q231 506 273 510V616H330V509Q370 504 397 487Q424 470 436 448V498H494V338H443Q439 380 408 411.5Q377 443 330 451V121Q374 126 408 146Q442 166 464 191L506 148Q478 116 433.5 91.5Q389 67 330 62V-54ZM142 287Q142 224 178 179Q214 134 273 123V450Q245 445 221 431Q197 417 179.5 395.5Q162 374 152 346.5Q142 319 142 287Z" glyph-name="cent" horiz-adv-x="580" unicode="&#162;" /><glyph d="M290 659 419 537 380 493 290 579 200 493 161 537Z" glyph-name="circumflex" horiz-adv-x="580" unicode="&#710;" /><glyph d="M212 64Q212 97 233.5 119Q255 141 290 141Q325 141 346.5 119Q368 97 368 64Q368 31 346.5 9Q325 -13 290 -13Q255 -13 233.5 9Q212 31 212 64ZM212 348Q212 381 233.5 403Q255 425 290 425Q325 425 346.5 403Q368 381 368 348Q368 315 346.5 293Q325 271 290 271Q255 271 233.5 293Q212 315 212 348Z" glyph-name="colon" horiz-adv-x="580" unicode=":" /><glyph d="M381 96 275 -172H199L248 96Z" glyph-name="comma" horiz-adv-x="580" unicode="," /><glyph d="M350 -61 288 -227H230L262 -61Z" glyph-name="commaaccent" horiz-adv-x="580" unicode="&#58388;" /><glyph d="M290 -3Q233 -3 182.5 18.5Q132 40 94.5 79Q57 118 35 172Q13 226 13 290Q13 354 35 407.5Q57 461 94.5 500Q132 539 182.5 560.5Q233 582 290 582Q347 582 397.5 560.5Q448 539 485.5 500Q523 461 545 407.5Q567 354 567 290Q567 226 545 172Q523 118 485.5 79Q448 40 397.5 18.5Q347 -3 290 -3ZM290 46Q336 46 377 64Q418 82 448.5 114.5Q479 147 496.5 191.5Q514 236 514 290Q514 343 496.5 388Q479 433 448.5 465Q418 497 377 515Q336 533 290 533Q244 533 203 515Q162 497 131.5 465Q101 433 83.5 388Q66 343 66 290Q66 236 83.5 191.5Q101 147 131.5 114.5Q162 82 203 64Q244 46 290 46ZM290 443Q317 443 338.5 432.5Q360 422 370 406V436H411V328H373Q369 357 346.5 377.5Q324 398 292 398Q270 398 252.5 389Q235 380 223 364.5Q211 349 205 329Q199 309 199 287Q199 242 223.5 208.5Q248 175 294 175Q329 175 348.5 190.5Q368 206 380 224L418 198Q404 174 373.5 152Q343 130 294 130Q229 130 189.5 173.5Q150 217 150 287Q150 322 160.5 350.5Q171 379 189.5 399.5Q208 420 233.5 431.5Q259 443 290 443Z" glyph-name="copyright" horiz-adv-x="580" unicode="&#169;" /><glyph d="M355 557V616H480V59H546V0H418V70Q399 37 357 11.5Q315 -14 257 -14Q212 -14 173 3Q134 20 106 50Q78 80 62 121Q46 162 46 211Q46 260 62 301Q78 342 106 372Q134 402 173 419Q212 436 257 436Q315 436 357 411Q399 386 418 353V557ZM111 211Q111 176 122 145.5Q133 115 153 92.5Q173 70 200.5 57Q228 44 261 44Q295 44 323.5 56Q352 68 373 89Q394 110 406 139Q418 168 418 201V222Q418 255 406 283.5Q394 312 373 333Q352 354 323.5 366Q295 378 261 378Q228 378 200.5 365.5Q173 353 153 330.5Q133 308 122 277.5Q111 247 111 211Z" glyph-name="d" horiz-adv-x="580" unicode="d" /><glyph d="M134 430H259V616H321V430H446V371H321V-54H259V371H134Z" glyph-name="dagger" horiz-adv-x="580" unicode="&#8224;" /><glyph d="M446 146H321V-54H259V146H134V205H259V371H134V430H259V616H321V430H446V371H321V205H446Z" glyph-name="daggerdbl" horiz-adv-x="580" unicode="&#8225;" /><glyph d="M355 557V616H480V59H546V0H418V70Q399 37 357 11.5Q315 -14 257 -14Q212 -14 173 3Q134 20 106 50Q78 80 62 121Q46 162 46 211Q46 260 62 301Q78 342 106 372Q134 402 173 419Q212 436 257 436Q315 436 357 411Q399 386 418 353V557ZM111 211Q111 176 122 145.5Q133 115 153 92.5Q173 70 200.5 57Q228 44 261 44Q295 44 323.5 56Q352 68 373 89Q394 110 406 139Q418 168 418 201V222Q418 255 406 283.5Q394 312 373 333Q352 354 323.5 366Q295 378 261 378Q228 378 200.5 365.5Q173 353 153 330.5Q133 308 122 277.5Q111 247 111 211ZM675 649 586 477 535 497 596 680Z" glyph-name="dcaron" horiz-adv-x="580" unicode="&#271;" /><glyph d="M546 468H480V59H546V0H418V70Q399 37 357 11.5Q315 -14 257 -14Q212 -14 173 3Q134 20 106 50Q78 80 62 121Q46 162 46 211Q46 260 62 301Q78 342 106 372Q134 402 173 419Q212 436 257 436Q315 436 357 411Q399 386 418 353V468H260V523H418V558H355V616H480V523H546ZM111 211Q111 176 122 145.5Q133 115 153 92.5Q173 70 200.5 57Q228 44 261 44Q295 44 323.5 56Q352 68 373 89Q394 110 406 139Q418 168 418 201V222Q418 255 406 283.5Q394 312 373 333Q352 354 323.5 366Q295 378 261 378Q228 378 200.5 365.5Q173 353 153 330.5Q133 308 122 277.5Q111 247 111 211Z" glyph-name="dcroat" horiz-adv-x="580" unicode="&#273;" /><glyph d="M431 488Q431 458 420 432Q409 406 390.5 386.5Q372 367 346 356Q320 345 290 345Q260 345 234 356Q208 367 189.5 386.5Q171 406 160 432Q149 458 149 488Q149 518 160 544Q171 570 189.5 589Q208 608 234 619Q260 630 290 630Q320 630 346 619Q372 608 390.5 589Q409 570 420 544Q431 518 431 488ZM372 488Q372 524 349 548.5Q326 573 290 573Q254 573 231 548.5Q208 524 208 488Q208 451 231 426.5Q254 402 290 402Q326 402 349 426.5Q372 451 372 488Z" glyph-name="degree" horiz-adv-x="580" unicode="&#176;" /><glyph d="M248 569Q248 544 231.5 528Q215 512 191 512Q168 512 151 528Q134 544 134 569Q134 594 151 610Q168 626 191 626Q215 626 231.5 610Q248 594 248 569ZM446 569Q446 544 429 528Q412 512 389 512Q365 512 348.5 528Q332 544 332 569Q332 594 348.5 610Q365 626 389 626Q412 626 429 610Q446 594 446 569Z" glyph-name="dieresis" horiz-adv-x="580" unicode="&#168;" /><glyph d="M239 446Q239 468 253 481.5Q267 495 289 495Q311 495 325.5 481.5Q340 468 340 446Q340 424 325.5 410.5Q311 397 289 397Q267 397 253 410.5Q239 424 239 446ZM74 246V305H506V246ZM239 104Q239 126 253 140Q267 154 289 154Q311 154 325.5 140Q340 126 340 104Q340 82 325.5 68.5Q311 55 289 55Q267 55 253 68.5Q239 82 239 104Z" glyph-name="divide" horiz-adv-x="580" unicode="&#247;" /><glyph d="M265 -96V8Q227 13 199 28Q171 43 154 65V19H95V174H149Q151 128 184 100.5Q217 73 265 65V275Q234 284 204 295.5Q174 307 151 325Q128 343 114 369Q100 395 100 434Q100 469 114 495.5Q128 522 151 540Q174 558 204 567.5Q234 577 265 579V670H321V575Q352 570 375.5 556.5Q399 543 414 524V564H473V415H419Q417 457 390 483.5Q363 510 321 518V326Q356 317 386.5 305.5Q417 294 440 276Q463 258 476.5 231Q490 204 490 164Q490 127 477 98.5Q464 70 441.5 50.5Q419 31 388 19.5Q357 8 321 6V-96ZM427 163Q427 207 400 227Q373 247 321 262V63Q369 68 398 93Q427 118 427 163ZM164 435Q164 392 193 372.5Q222 353 265 341V521Q224 518 194 497.5Q164 477 164 435Z" glyph-name="dollar" horiz-adv-x="580" unicode="$" /><glyph d="M352 569Q352 542 334 524.5Q316 507 290 507Q264 507 246 524.5Q228 542 228 569Q228 596 246 613.5Q264 631 290 631Q316 631 334 613.5Q352 596 352 569Z" glyph-name="dotaccent" horiz-adv-x="580" unicode="&#729;" /><glyph d="M498 59V0H90V59H270V364H130V422H332V59Z" glyph-name="dotlessi" horiz-adv-x="580" unicode="&#305;" /><glyph d="M156 422H433V-10Q433 -53 418 -88.5Q403 -124 378 -149Q353 -174 319.5 -188Q286 -202 250 -202Q183 -202 133.5 -165Q84 -128 70 -62L129 -46Q141 -93 173 -119Q205 -145 250 -145Q274 -145 296 -134.5Q318 -124 334.5 -105.5Q351 -87 361 -61.5Q371 -36 371 -5V363H156Z" glyph-name="dotlessj" horiz-adv-x="580" unicode="&#567;" /><glyph d="M442 247Q434 305 393.5 342Q353 379 296 379Q236 379 193.5 342.5Q151 306 140 247ZM503 63Q470 29 418.5 7.5Q367 -14 305 -14Q253 -14 210 3.5Q167 21 136 51Q105 81 88 122.5Q71 164 71 212Q71 260 88 301Q105 342 135 372Q165 402 206.5 419Q248 436 296 436Q345 436 385 418Q425 400 453.5 368.5Q482 337 497.5 295.5Q513 254 513 206V193H137Q141 160 155 132.5Q169 105 191 85Q213 65 242 54Q271 43 305 43Q354 43 394 60.5Q434 78 460 107Z" glyph-name="e" horiz-adv-x="580" unicode="e" /><glyph d="M398 608 226 489 192 532 346 674ZM442 247Q434 305 393.5 342Q353 379 296 379Q236 379 193.5 342.5Q151 306 140 247ZM503 63Q470 29 418.5 7.5Q367 -14 305 -14Q253 -14 210 3.5Q167 21 136 51Q105 81 88 122.5Q71 164 71 212Q71 260 88 301Q105 342 135 372Q165 402 206.5 419Q248 436 296 436Q345 436 385 418Q425 400 453.5 368.5Q482 337 497.5 295.5Q513 254 513 206V193H137Q141 160 155 132.5Q169 105 191 85Q213 65 242 54Q271 43 305 43Q354 43 394 60.5Q434 78 460 107Z" glyph-name="eacute" horiz-adv-x="580" unicode="&#233;" /><glyph d="M298 502Q243 502 207 535Q171 568 168 621L226 626Q229 597 248 576Q267 555 298 555Q329 555 348 576Q367 597 370 626L428 621Q425 568 389 535Q353 502 298 502ZM442 247Q434 305 393.5 342Q353 379 296 379Q236 379 193.5 342.5Q151 306 140 247ZM503 63Q470 29 418.5 7.5Q367 -14 305 -14Q253 -14 210 3.5Q167 21 136 51Q105 81 88 122.5Q71 164 71 212Q71 260 88 301Q105 342 135 372Q165 402 206.5 419Q248 436 296 436Q345 436 385 418Q425 400 453.5 368.5Q482 337 497.5 295.5Q513 254 513 206V193H137Q141 160 155 132.5Q169 105 191 85Q213 65 242 54Q271 43 305 43Q354 43 394 60.5Q434 78 460 107Z" glyph-name="ebreve" horiz-adv-x="580" unicode="&#277;" /><glyph d="M169 616 208 659 297 573 387 659 426 616 297 493ZM442 247Q434 305 393.5 342Q353 379 296 379Q236 379 193.5 342.5Q151 306 140 247ZM503 63Q470 29 418.5 7.5Q367 -14 305 -14Q253 -14 210 3.5Q167 21 136 51Q105 81 88 122.5Q71 164 71 212Q71 260 88 301Q105 342 135 372Q165 402 206.5 419Q248 436 296 436Q345 436 385 418Q425 400 453.5 368.5Q482 337 497.5 295.5Q513 254 513 206V193H137Q141 160 155 132.5Q169 105 191 85Q213 65 242 54Q271 43 305 43Q354 43 394 60.5Q434 78 460 107Z" glyph-name="ecaron" horiz-adv-x="580" unicode="&#283;" /><glyph d="M298 659 426 537 387 493 298 579 208 493 169 537ZM442 247Q434 305 393.5 342Q353 379 296 379Q236 379 193.5 342.5Q151 306 140 247ZM503 63Q470 29 418.5 7.5Q367 -14 305 -14Q253 -14 210 3.5Q167 21 136 51Q105 81 88 122.5Q71 164 71 212Q71 260 88 301Q105 342 135 372Q165 402 206.5 419Q248 436 296 436Q345 436 385 418Q425 400 453.5 368.5Q482 337 497.5 295.5Q513 254 513 206V193H137Q141 160 155 132.5Q169 105 191 85Q213 65 242 54Q271 43 305 43Q354 43 394 60.5Q434 78 460 107Z" glyph-name="ecircumflex" horiz-adv-x="580" unicode="&#234;" /><glyph d="M256 569Q256 544 239 528Q222 512 199 512Q175 512 158.5 528Q142 544 142 569Q142 594 158.5 610Q175 626 199 626Q222 626 239 610Q256 594 256 569ZM453 569Q453 544 436.5 528Q420 512 396 512Q373 512 356 528Q339 544 339 569Q339 594 356 610Q373 626 396 626Q420 626 436.5 610Q453 594 453 569ZM442 247Q434 305 393.5 342Q353 379 296 379Q236 379 193.5 342.5Q151 306 140 247ZM503 63Q470 29 418.5 7.5Q367 -14 305 -14Q253 -14 210 3.5Q167 21 136 51Q105 81 88 122.5Q71 164 71 212Q71 260 88 301Q105 342 135 372Q165 402 206.5 419Q248 436 296 436Q345 436 385 418Q425 400 453.5 368.5Q482 337 497.5 295.5Q513 254 513 206V193H137Q141 160 155 132.5Q169 105 191 85Q213 65 242 54Q271 43 305 43Q354 43 394 60.5Q434 78 460 107Z" glyph-name="edieresis" horiz-adv-x="580" unicode="&#235;" /><glyph d="M359 569Q359 542 341 524.5Q323 507 298 507Q272 507 254 524.5Q236 542 236 569Q236 596 254 613.5Q272 631 298 631Q323 631 341 613.5Q359 596 359 569ZM442 247Q434 305 393.5 342Q353 379 296 379Q236 379 193.5 342.5Q151 306 140 247ZM503 63Q470 29 418.5 7.5Q367 -14 305 -14Q253 -14 210 3.5Q167 21 136 51Q105 81 88 122.5Q71 164 71 212Q71 260 88 301Q105 342 135 372Q165 402 206.5 419Q248 436 296 436Q345 436 385 418Q425 400 453.5 368.5Q482 337 497.5 295.5Q513 254 513 206V193H137Q141 160 155 132.5Q169 105 191 85Q213 65 242 54Q271 43 305 43Q354 43 394 60.5Q434 78 460 107Z" glyph-name="edotaccent" horiz-adv-x="580" unicode="&#279;" /><glyph d="M240 674 394 533 360 489 188 608ZM442 247Q434 305 393.5 342Q353 379 296 379Q236 379 193.5 342.5Q151 306 140 247ZM503 63Q470 29 418.5 7.5Q367 -14 305 -14Q253 -14 210 3.5Q167 21 136 51Q105 81 88 122.5Q71 164 71 212Q71 260 88 301Q105 342 135 372Q165 402 206.5 419Q248 436 296 436Q345 436 385 418Q425 400 453.5 368.5Q482 337 497.5 295.5Q513 254 513 206V193H137Q141 160 155 132.5Q169 105 191 85Q213 65 242 54Q271 43 305 43Q354 43 394 60.5Q434 78 460 107Z" glyph-name="egrave" horiz-adv-x="580" unicode="&#232;" /><glyph d="M104 435Q104 467 116.5 496Q129 525 152.5 547Q176 569 210.5 581.5Q245 594 290 594Q335 594 369.5 581.5Q404 569 427.5 547Q451 525 463.5 496Q476 467 476 435Q476 390 453 355Q430 320 385 301Q437 281 464 242Q491 203 491 155Q491 121 477.5 90.5Q464 60 438.5 37Q413 14 375.5 0Q338 -14 290 -14Q242 -14 204.5 0Q167 14 141.5 37Q116 60 102.5 90.5Q89 121 89 155Q89 203 116 242Q143 281 195 301Q150 320 127 355Q104 390 104 435ZM290 269Q227 269 191 236.5Q155 204 155 157Q155 109 190.5 77Q226 45 290 45Q354 45 389.5 77Q425 109 425 157Q425 204 389 236.5Q353 269 290 269ZM290 535Q233 535 201.5 506Q170 477 170 433Q170 391 201.5 361Q233 331 290 331Q347 331 378.5 361Q410 391 410 433Q410 477 378.5 506Q347 535 290 535Z" glyph-name="eight" horiz-adv-x="580" unicode="8" /><glyph d="M290 142Q343 142 372.5 115Q402 88 402 51Q402 1 351 -21Q380 -32 395.5 -52.5Q411 -73 411 -101Q411 -139 379 -167.5Q347 -196 290 -196Q233 -196 201 -167.5Q169 -139 169 -101Q169 -73 184.5 -52.5Q200 -32 229 -21Q178 1 178 51Q178 88 207.5 115Q237 142 290 142ZM357 -97Q357 -75 339 -60Q321 -45 290 -45Q259 -45 241 -60Q223 -75 223 -97Q223 -119 240.5 -133.5Q258 -148 290 -148Q322 -148 339.5 -133.5Q357 -119 357 -97ZM290 94Q263 94 247.5 81Q232 68 232 48Q232 29 247.5 16Q263 3 290 3Q317 3 332.5 16Q348 29 348 48Q348 68 332.5 81Q317 94 290 94Z" glyph-name="eight.inf" horiz-adv-x="580" unicode="&#58745;" /><glyph d="M410 54Q410 83 429.5 102Q449 121 478 121Q507 121 526.5 102Q546 83 546 54Q546 25 526.5 6Q507 -13 478 -13Q449 -13 429.5 6Q410 25 410 54ZM34 54Q34 83 53.5 102Q73 121 102 121Q131 121 150.5 102Q170 83 170 54Q170 25 150.5 6Q131 -13 102 -13Q73 -13 53.5 6Q34 25 34 54ZM222 54Q222 83 241.5 102Q261 121 290 121Q319 121 338.5 102Q358 83 358 54Q358 25 338.5 6Q319 -13 290 -13Q261 -13 241.5 6Q222 25 222 54Z" glyph-name="ellipsis" horiz-adv-x="580" unicode="&#8230;" /><glyph d="M173 570H419V511H173ZM442 247Q434 305 393.5 342Q353 379 296 379Q236 379 193.5 342.5Q151 306 140 247ZM503 63Q470 29 418.5 7.5Q367 -14 305 -14Q253 -14 210 3.5Q167 21 136 51Q105 81 88 122.5Q71 164 71 212Q71 260 88 301Q105 342 135 372Q165 402 206.5 419Q248 436 296 436Q345 436 385 418Q425 400 453.5 368.5Q482 337 497.5 295.5Q513 254 513 206V193H137Q141 160 155 132.5Q169 105 191 85Q213 65 242 54Q271 43 305 43Q354 43 394 60.5Q434 78 460 107Z" glyph-name="emacron" horiz-adv-x="580" unicode="&#275;" /><glyph d="M521 237H59V303H521Z" glyph-name="emdash" horiz-adv-x="580" unicode="&#8212;" /><glyph d="M470 237H110V303H470Z" glyph-name="endash" horiz-adv-x="580" unicode="&#8211;" /><glyph d="M436 266Q436 326 407.5 351.5Q379 377 339 377Q313 377 287.5 367.5Q262 358 241.5 340Q221 322 208 297.5Q195 273 195 243V59H263V0H65V59H133V363H71V422H195V360Q216 395 256 415.5Q296 436 347 436Q415 436 456.5 396.5Q498 357 498 282V-47Q498 -81 486.5 -109.5Q475 -138 455 -158.5Q435 -179 407 -190.5Q379 -202 347 -202Q295 -202 256 -175Q217 -148 202 -102L259 -79Q272 -111 295.5 -128Q319 -145 348 -145Q386 -145 411 -116Q436 -87 436 -43Z" glyph-name="eng" horiz-adv-x="580" unicode="&#331;" /><glyph d="M503 63Q487 46 462.5 30.5Q438 15 415 1Q364 -30 333.5 -58.5Q303 -87 303 -116Q303 -131 312 -142Q321 -153 341 -153Q361 -153 379.5 -142.5Q398 -132 416 -115L446 -152Q423 -175 395.5 -190.5Q368 -206 334 -206Q291 -206 267.5 -182.5Q244 -159 244 -123Q244 -64 312 -14H305Q253 -14 210 3.5Q167 21 136 51Q105 81 88 122.5Q71 164 71 212Q71 260 88 301Q105 342 135 372Q165 402 206.5 419Q248 436 296 436Q345 436 385 418Q425 400 453.5 368.5Q482 337 497.5 295.5Q513 254 513 206V193H137Q141 160 155 132.5Q169 105 191 85Q213 65 242 54Q271 43 305 43Q354 43 394 60.5Q434 78 460 107ZM442 247Q434 305 393.5 342Q353 379 296 379Q236 379 193.5 342.5Q151 306 140 247Z" glyph-name="eogonek" horiz-adv-x="580" unicode="&#281;" /><glyph d="M506 224V165H74V224ZM506 385V326H74V385Z" glyph-name="equal" horiz-adv-x="580" unicode="=" /><glyph d="M184 622Q226 608 262 590Q298 572 330 548L426 597L447 557L369 518Q433 458 467.5 379Q502 300 502 209Q502 157 486 115.5Q470 74 442 45.5Q414 17 375 1.5Q336 -14 289 -14Q243 -14 204 1.5Q165 17 136.5 45Q108 73 91.5 110.5Q75 148 75 193Q75 239 91.5 277.5Q108 316 136.5 343.5Q165 371 203.5 386.5Q242 402 286 402Q323 402 354.5 389.5Q386 377 409 352Q395 389 370.5 423.5Q346 458 311 488L204 434L183 474L271 518Q218 555 153 579ZM437 193Q437 225 426 252Q415 279 395.5 299Q376 319 348.5 330.5Q321 342 289 342Q257 342 229.5 330.5Q202 319 182.5 299Q163 279 152 252Q141 225 141 193Q141 162 152 135Q163 108 182.5 88Q202 68 229.5 56.5Q257 45 289 45Q321 45 348.5 56.5Q376 68 395.5 88Q415 108 426 135Q437 162 437 193Z" glyph-name="eth" horiz-adv-x="580" unicode="&#240;" /><glyph d="M341 616 315 204H265L239 616ZM222 54Q222 83 241.5 102Q261 121 290 121Q319 121 338.5 102Q358 83 358 54Q358 25 338.5 6Q319 -13 290 -13Q261 -13 241.5 6Q222 25 222 54Z" glyph-name="exclam" horiz-adv-x="580" unicode="!" /><glyph d="M239 -160 265 252H315L341 -160ZM222 402Q222 431 241.5 450Q261 469 290 469Q319 469 338.5 450Q358 431 358 402Q358 373 338.5 354Q319 335 290 335Q261 335 241.5 354Q222 373 222 402Z" glyph-name="exclamdown" horiz-adv-x="580" unicode="&#161;" /><glyph d="M448 363H267V59H435V0H100V59H205V363H100V422H205V441Q205 488 218.5 523.5Q232 559 256 582.5Q280 606 313.5 618Q347 630 387 630Q446 630 485.5 607Q525 584 547 558L504 517Q483 540 454.5 556.5Q426 573 388 573Q363 573 341 565.5Q319 558 302.5 542Q286 526 276.5 501Q267 476 267 440V422H448Z" glyph-name="f" horiz-adv-x="580" unicode="f" /><glyph d="M453 521H204L195 326Q213 343 239 353.5Q265 364 299 364Q337 364 370.5 350Q404 336 429 311.5Q454 287 468.5 253Q483 219 483 179Q483 141 469.5 106Q456 71 430.5 44.5Q405 18 368.5 2Q332 -14 286 -14Q226 -14 177 11.5Q128 37 96 81L145 121Q170 87 206 66.5Q242 46 286 46Q319 46 343.5 58Q368 70 384 89Q400 108 408 131.5Q416 155 416 179Q416 204 408 226.5Q400 249 384.5 266.5Q369 284 347 294Q325 304 298 304Q266 304 242.5 293.5Q219 283 202 267H132L146 580H453Z" glyph-name="five" horiz-adv-x="580" unicode="5" /><glyph d="M297 -31Q285 -31 273 -35Q261 -39 252 -47H197L206 134H392V86H252L248 -1Q259 7 273 11.5Q287 16 304 16Q325 16 344 8.5Q363 1 378 -12.5Q393 -26 401.5 -45Q410 -64 410 -87Q410 -108 402 -128Q394 -148 378.5 -163Q363 -178 340.5 -187Q318 -196 290 -196Q253 -196 223.5 -180.5Q194 -165 177 -141L216 -109Q230 -126 248.5 -136.5Q267 -147 290 -147Q320 -147 337.5 -129Q355 -111 355 -87Q355 -63 339 -47Q323 -31 297 -31Z" glyph-name="five.inf" horiz-adv-x="580" unicode="&#58742;" /><glyph d="M263 256H161L167 314H269L281 431Q291 515 334 554.5Q377 594 440 594Q488 594 518 574Q548 554 562 534L518 495Q505 512 486.5 524.5Q468 537 440 537Q404 537 377 512.5Q350 488 343 431L330 314H432L426 256H324L298 0Q288 -84 245 -123.5Q202 -163 139 -163Q91 -163 61 -143Q31 -123 17 -103L61 -64Q74 -81 92.5 -93.5Q111 -106 139 -106Q175 -106 202.5 -82Q230 -58 236 0Z" glyph-name="florin" horiz-adv-x="580" unicode="&#402;" /><glyph d="M332 580H410V218H481V161H410V59H481V0H252V59H349V161H77V228ZM349 218V504L141 218Z" glyph-name="four" horiz-adv-x="580" unicode="4" /><glyph d="M306 134H370V-53H407V-98H370V-141H407V-188H265V-141H320V-98H169V-47ZM320 -53V78L220 -53Z" glyph-name="four.inf" horiz-adv-x="580" unicode="&#58741;" /><glyph d="M70 -22 30 12 510 602 550 568Z" glyph-name="fraction" horiz-adv-x="580" unicode="&#8260;" /><glyph d="M128 -89Q154 -112 188.5 -128.5Q223 -145 268 -145Q298 -145 325 -136.5Q352 -128 373 -110.5Q394 -93 406 -66Q418 -39 418 -1V71Q399 39 356.5 15Q314 -9 257 -9Q212 -9 173.5 7.5Q135 24 106.5 53.5Q78 83 62 124Q46 165 46 214Q46 262 62 302.5Q78 343 106.5 373Q135 403 173.5 419.5Q212 436 257 436Q314 436 356.5 411.5Q399 387 418 355V422H546V363H480V-1Q480 -51 464.5 -89Q449 -127 421.5 -152Q394 -177 355 -189.5Q316 -202 269 -202Q203 -202 158.5 -181Q114 -160 88 -135ZM111 214Q111 179 122 148.5Q133 118 153 96Q173 74 200.5 61.5Q228 49 261 49Q295 49 323.5 61Q352 73 373 93.5Q394 114 406 142Q418 170 418 203V224Q418 257 406 285Q394 313 373 334Q352 355 323.5 366.5Q295 378 261 378Q228 378 200.5 365.5Q173 353 153 331Q133 309 122 279Q111 249 111 214Z" glyph-name="g" horiz-adv-x="580" unicode="g" /><glyph d="M261 502Q206 502 170 535Q134 568 131 621L189 626Q192 597 210.5 576Q229 555 261 555Q292 555 311 576Q330 597 333 626L391 621Q388 568 352 535Q316 502 261 502ZM128 -89Q154 -112 188.5 -128.5Q223 -145 268 -145Q298 -145 325 -136.5Q352 -128 373 -110.5Q394 -93 406 -66Q418 -39 418 -1V71Q399 39 356.5 15Q314 -9 257 -9Q212 -9 173.5 7.5Q135 24 106.5 53.5Q78 83 62 124Q46 165 46 214Q46 262 62 302.5Q78 343 106.5 373Q135 403 173.5 419.5Q212 436 257 436Q314 436 356.5 411.5Q399 387 418 355V422H546V363H480V-1Q480 -51 464.5 -89Q449 -127 421.5 -152Q394 -177 355 -189.5Q316 -202 269 -202Q203 -202 158.5 -181Q114 -160 88 -135ZM111 214Q111 179 122 148.5Q133 118 153 96Q173 74 200.5 61.5Q228 49 261 49Q295 49 323.5 61Q352 73 373 93.5Q394 114 406 142Q418 170 418 203V224Q418 257 406 285Q394 313 373 334Q352 355 323.5 366.5Q295 378 261 378Q228 378 200.5 365.5Q173 353 153 331Q133 309 122 279Q111 249 111 214Z" glyph-name="gbreve" horiz-adv-x="580" unicode="&#287;" /><glyph d="M260 659 389 537 350 493 260 579 170 493 131 537ZM128 -89Q154 -112 188.5 -128.5Q223 -145 268 -145Q298 -145 325 -136.5Q352 -128 373 -110.5Q394 -93 406 -66Q418 -39 418 -1V71Q399 39 356.5 15Q314 -9 257 -9Q212 -9 173.5 7.5Q135 24 106.5 53.5Q78 83 62 124Q46 165 46 214Q46 262 62 302.5Q78 343 106.5 373Q135 403 173.5 419.5Q212 436 257 436Q314 436 356.5 411.5Q399 387 418 355V422H546V363H480V-1Q480 -51 464.5 -89Q449 -127 421.5 -152Q394 -177 355 -189.5Q316 -202 269 -202Q203 -202 158.5 -181Q114 -160 88 -135ZM111 214Q111 179 122 148.5Q133 118 153 96Q173 74 200.5 61.5Q228 49 261 49Q295 49 323.5 61Q352 73 373 93.5Q394 114 406 142Q418 170 418 203V224Q418 257 406 285Q394 313 373 334Q352 355 323.5 366.5Q295 378 261 378Q228 378 200.5 365.5Q173 353 153 331Q133 309 122 279Q111 249 111 214Z" glyph-name="gcircumflex" horiz-adv-x="580" unicode="&#285;" /><glyph d="M215 497 277 663H334L302 497ZM128 -89Q154 -112 188.5 -128.5Q223 -145 268 -145Q298 -145 325 -136.5Q352 -128 373 -110.5Q394 -93 406 -66Q418 -39 418 -1V71Q399 39 356.5 15Q314 -9 257 -9Q212 -9 173.5 7.5Q135 24 106.5 53.5Q78 83 62 124Q46 165 46 214Q46 262 62 302.5Q78 343 106.5 373Q135 403 173.5 419.5Q212 436 257 436Q314 436 356.5 411.5Q399 387 418 355V422H546V363H480V-1Q480 -51 464.5 -89Q449 -127 421.5 -152Q394 -177 355 -189.5Q316 -202 269 -202Q203 -202 158.5 -181Q114 -160 88 -135ZM111 214Q111 179 122 148.5Q133 118 153 96Q173 74 200.5 61.5Q228 49 261 49Q295 49 323.5 61Q352 73 373 93.5Q394 114 406 142Q418 170 418 203V224Q418 257 406 285Q394 313 373 334Q352 355 323.5 366.5Q295 378 261 378Q228 378 200.5 365.5Q173 353 153 331Q133 309 122 279Q111 249 111 214Z" glyph-name="gcommaaccent" horiz-adv-x="580" unicode="&#291;" /><glyph d="M323 569Q323 542 305 524.5Q287 507 262 507Q236 507 218 524.5Q200 542 200 569Q200 596 218 613.5Q236 631 262 631Q287 631 305 613.5Q323 596 323 569ZM128 -89Q154 -112 188.5 -128.5Q223 -145 268 -145Q298 -145 325 -136.5Q352 -128 373 -110.5Q394 -93 406 -66Q418 -39 418 -1V71Q399 39 356.5 15Q314 -9 257 -9Q212 -9 173.5 7.5Q135 24 106.5 53.5Q78 83 62 124Q46 165 46 214Q46 262 62 302.5Q78 343 106.5 373Q135 403 173.5 419.5Q212 436 257 436Q314 436 356.5 411.5Q399 387 418 355V422H546V363H480V-1Q480 -51 464.5 -89Q449 -127 421.5 -152Q394 -177 355 -189.5Q316 -202 269 -202Q203 -202 158.5 -181Q114 -160 88 -135ZM111 214Q111 179 122 148.5Q133 118 153 96Q173 74 200.5 61.5Q228 49 261 49Q295 49 323.5 61Q352 73 373 93.5Q394 114 406 142Q418 170 418 203V224Q418 257 406 285Q394 313 373 334Q352 355 323.5 366.5Q295 378 261 378Q228 378 200.5 365.5Q173 353 153 331Q133 309 122 279Q111 249 111 214Z" glyph-name="gdotaccent" horiz-adv-x="580" unicode="&#289;" /><glyph d="M297 619Q332 619 361.5 609.5Q391 600 413 582Q435 564 447.5 539.5Q460 515 460 485Q460 439 438 413.5Q416 388 387 374Q374 368 361.5 362Q349 356 339 348.5Q329 341 323 330.5Q317 320 317 305Q317 289 325.5 279Q334 269 347.5 262Q361 255 378 250.5Q395 246 412 241Q439 234 463.5 223.5Q488 213 506.5 197.5Q525 182 536 160Q547 138 547 107Q547 51 510 18.5Q473 -14 418 -14Q379 -14 346 2Q313 18 297 44V0H241V142H292Q293 119 303 100.5Q313 82 329.5 69Q346 56 366.5 49Q387 42 409 42Q441 42 462 58Q483 74 483 106Q483 144 455 160Q427 176 382 188Q360 194 337 201.5Q314 209 295.5 222Q277 235 265.5 254.5Q254 274 254 305Q254 334 263.5 352.5Q273 371 287.5 383.5Q302 396 319 404Q336 412 352 420Q372 430 385 444.5Q398 459 398 486Q398 522 368.5 541.5Q339 561 297 561Q249 561 215.5 529.5Q182 498 182 424V0H53V59H120V363H53V422H120V426Q120 521 169.5 570Q219 619 297 619Z" glyph-name="germandbls" horiz-adv-x="580" unicode="&#223;" /><glyph d="M239 674 393 533 359 489 187 608Z" glyph-name="grave" horiz-adv-x="580" unicode="`" /><glyph d="M517 283 101 44 75 97 399 283 75 469 101 522Z" glyph-name="greater" horiz-adv-x="580" unicode="&gt;" /><glyph d="M94 161 70 217 377 358 70 499 94 554 519 358ZM507 107V48H75V107Z" glyph-name="greaterequal" horiz-adv-x="580" unicode="&#8805;" /><glyph d="M355 217 491 82 447 38 268 217 447 396 491 352ZM165 217 302 82 257 38 79 217 257 396 302 352Z" glyph-name="guillemotleft" horiz-adv-x="580" unicode="&#171;" /><glyph d="M89 352 133 396 312 217 133 38 89 82 225 217ZM278 352 323 396 501 217 323 38 278 82 415 217Z" glyph-name="guillemotright" horiz-adv-x="580" unicode="&#187;" /><glyph d="M260 217 396 82 352 38 174 217 352 396 396 352Z" glyph-name="guilsinglleft" horiz-adv-x="580" unicode="&#8249;" /><glyph d="M184 352 228 396 406 217 228 38 184 82 320 217Z" glyph-name="guilsinglright" horiz-adv-x="580" unicode="&#8250;" /><glyph d="M47 59H115V557H50V616H177V360Q198 395 238 415.5Q278 436 329 436Q397 436 438.5 396.5Q480 357 480 282V59H548V0H350V59H418V266Q418 326 389.5 351.5Q361 377 321 377Q295 377 269.5 367.5Q244 358 223.5 340Q203 322 190 297.5Q177 273 177 243V59H245V0H47Z" glyph-name="h" horiz-adv-x="580" unicode="h" /><glyph d="M177 468V360Q198 395 238 415.5Q278 436 329 436Q397 436 438.5 396.5Q480 357 480 282V59H548V0H350V59H418V266Q418 326 389.5 351.5Q361 377 321 377Q295 377 269.5 367.5Q244 358 223.5 340Q203 322 190 297.5Q177 273 177 243V59H245V0H47V59H115V468H50V523H115V559H50V616H177V523H326V468Z" glyph-name="hbar" horiz-adv-x="580" unicode="&#295;" /><glyph d="M119 810 248 687 209 643 119 729 30 643 -9 687ZM47 59H115V557H50V616H177V360Q198 395 238 415.5Q278 436 329 436Q397 436 438.5 396.5Q480 357 480 282V59H548V0H350V59H418V266Q418 326 389.5 351.5Q361 377 321 377Q295 377 269.5 367.5Q244 358 223.5 340Q203 322 190 297.5Q177 273 177 243V59H245V0H47Z" glyph-name="hcircumflex" horiz-adv-x="580" unicode="&#293;" /><glyph d="M298 612 130 490 97 531 247 675ZM484 612 316 490 282 531 432 675Z" glyph-name="hungarumlaut" horiz-adv-x="580" unicode="&#733;" /><glyph d="M441 235H139V305H441Z" glyph-name="hyphen" horiz-adv-x="580" unicode="-" /><glyph d="M498 59V0H90V59H270V363H130V422H332V59ZM332 523H256V625H332Z" glyph-name="i" horiz-adv-x="580" unicode="i" /><glyph d="M498 59V0H90V59H270V364H130V422H332V59ZM404 608 232 489 198 532 352 674Z" glyph-name="iacute" horiz-adv-x="580" unicode="&#237;" /><glyph d="M498 59V0H90V59H270V364H130V422H332V59ZM294 502Q239 502 203 535Q167 568 164 621L222 626Q224 597 243 576Q262 555 294 555Q325 555 344 576Q363 597 366 626L424 621Q421 568 385 535Q349 502 294 502Z" glyph-name="ibreve" horiz-adv-x="580" unicode="&#301;" /><glyph d="M498 59V0H90V59H270V364H130V422H332V59ZM296 659 425 537 386 493 296 579 207 493 168 537Z" glyph-name="icircumflex" horiz-adv-x="580" unicode="&#238;" /><glyph d="M498 59V0H90V59H270V364H130V422H332V59ZM254 569Q254 544 237.5 528Q221 512 197 512Q174 512 157 528Q140 544 140 569Q140 594 157 610Q174 626 197 626Q221 626 237.5 610Q254 594 254 569ZM452 569Q452 544 435.5 528Q419 512 395 512Q371 512 354.5 528Q338 544 338 569Q338 594 354.5 610Q371 626 395 626Q419 626 435.5 610Q452 594 452 569Z" glyph-name="idieresis" horiz-adv-x="580" unicode="&#239;" /><glyph d="M498 59V0H90V59H270V364H130V422H332V59ZM332 523H256V625H332Z" glyph-name="idotaccent" horiz-adv-x="580" unicode="&#59269;" /><glyph d="M498 59V0H90V59H270V364H130V422H332V59ZM225 674 379 533 345 489 174 608Z" glyph-name="igrave" horiz-adv-x="580" unicode="&#236;" /><glyph d="M362 59V0H24V59H161V363H52V422H223V59ZM223 523H147V625H223ZM312 422H522V-19Q522 -61 508.5 -95Q495 -129 472 -153Q449 -177 417.5 -189.5Q386 -202 351 -202Q291 -202 245 -168.5Q199 -135 184 -75L242 -56Q253 -97 282 -121Q311 -145 351 -145Q396 -145 428 -110.5Q460 -76 460 -16V363H312ZM446 625H522V523H446Z" glyph-name="ij" horiz-adv-x="580" unicode="&#307;" /><glyph d="M498 59V0H90V59H270V364H130V422H332V59ZM169 570H416V511H169Z" glyph-name="imacron" horiz-adv-x="580" unicode="&#299;" /><glyph d="M539 275Q539 245 529 220.5Q519 196 501.5 179.5Q484 163 461.5 154Q439 145 415 145Q375 145 346 167.5Q317 190 289 228Q262 189 233.5 167Q205 145 165 145Q141 145 118.5 154Q96 163 78.5 179.5Q61 196 51 220.5Q41 245 41 275Q41 305 51 329.5Q61 354 78.5 370.5Q96 387 118.5 396Q141 405 165 405Q205 405 234 382.5Q263 360 291 322Q319 360 347 382.5Q375 405 415 405Q439 405 461.5 396Q484 387 501.5 370.5Q519 354 529 329.5Q539 305 539 275ZM478 275Q478 307 459.5 327Q441 347 414 347Q382 347 360.5 324Q339 301 322 275Q338 248 360 225.5Q382 203 414 203Q441 203 459.5 223Q478 243 478 275ZM102 275Q102 243 120 223Q138 203 166 203Q198 203 219.5 225.5Q241 248 258 275Q241 301 219.5 324Q198 347 166 347Q138 347 120 327Q102 307 102 275Z" glyph-name="infinity" horiz-adv-x="580" unicode="&#8734;" /><glyph d="M258 481Q258 547 294 581.5Q330 616 384 616Q423 616 451.5 598Q480 580 498 557L455 517Q441 533 424.5 545Q408 557 385 557Q359 557 340 538Q321 519 321 477V-27Q321 -93 285.5 -127.5Q250 -162 196 -162Q157 -162 128 -144Q99 -126 82 -103L125 -63Q139 -79 155 -91Q171 -103 194 -103Q220 -103 239 -84Q258 -65 258 -23Z" glyph-name="integral" horiz-adv-x="580" unicode="&#8747;" /><glyph d="M90 0V59H270V364H130V422H332V59H498V0H372Q319 -29 288.5 -58.5Q258 -88 258 -116Q258 -131 267.5 -142Q277 -153 297 -153Q316 -153 334.5 -142.5Q353 -132 372 -115L402 -152Q379 -175 351.5 -190.5Q324 -206 289 -206Q247 -206 223.5 -182.5Q200 -159 200 -123Q200 -88 221.5 -58.5Q243 -29 288 0ZM332 523H256V625H332Z" glyph-name="iogonek" horiz-adv-x="580" unicode="&#303;" /><glyph d="M498 59V0H90V59H270V364H130V422H332V59ZM440 572Q439 560 432 546Q425 532 413.5 520Q402 508 386 500.5Q370 493 350 493Q329 493 313.5 500Q298 507 285 516Q272 525 260.5 532Q249 539 236 539Q217 539 206.5 526.5Q196 514 194 499L142 516Q143 528 149.5 542Q156 556 167.5 568Q179 580 195 587.5Q211 595 231 595Q253 595 268.5 588Q284 581 297 572Q310 563 321.5 556Q333 549 346 549Q365 549 375 561.5Q385 574 388 589Z" glyph-name="itilde" horiz-adv-x="580" unicode="&#297;" /><glyph d="M156 422H433V-10Q433 -53 418 -88.5Q403 -124 378 -149Q353 -174 319.5 -188Q286 -202 250 -202Q183 -202 133.5 -165Q84 -128 70 -62L129 -46Q141 -93 173 -119Q205 -145 250 -145Q274 -145 296 -134.5Q318 -124 334.5 -105.5Q351 -87 361 -61.5Q371 -36 371 -5V363H156ZM357 625H433V523H357Z" glyph-name="j" horiz-adv-x="580" unicode="j" /><glyph d="M399 659 528 537 489 493 399 579 309 493 270 537ZM156 422H433V-10Q433 -53 418 -88.5Q403 -124 378 -149Q353 -174 319.5 -188Q286 -202 250 -202Q183 -202 133.5 -165Q84 -128 70 -62L129 -46Q141 -93 173 -119Q205 -145 250 -145Q274 -145 296 -134.5Q318 -124 334.5 -105.5Q351 -87 361 -61.5Q371 -36 371 -5V363H156Z" glyph-name="jcircumflex" horiz-adv-x="580" unicode="&#309;" /><glyph d="M54 59H118V557H54V616H180V222L355 363H303V422H501V363H440L303 253L478 59H540V0H348V59H397L255 216L180 155V59H241V0H54Z" glyph-name="k" horiz-adv-x="580" unicode="k" /><glyph d="M345 -61 283 -227H225L257 -61ZM54 59H118V557H54V616H180V222L355 363H303V422H501V363H440L303 253L478 59H540V0H348V59H397L255 216L180 155V59H241V0H54Z" glyph-name="kcommaaccent" horiz-adv-x="580" unicode="&#311;" /><glyph d="M54 59H118V363H54V422H180V222L355 363H303V422H501V363H440L303 253L478 59H540V0H348V59H397L255 216L180 155V59H241V0H54Z" glyph-name="kgreenlandic" horiz-adv-x="580" unicode="&#312;" /><glyph d="M498 59V0H90V59H270V557H130V616H332V59Z" glyph-name="l" horiz-adv-x="580" unicode="l" /><glyph d="M498 59V0H90V59H270V557H130V616H332V59ZM407 776 235 657 201 700 355 842Z" glyph-name="lacute" horiz-adv-x="580" unicode="&#314;" /><glyph d="M498 59V0H90V59H270V557H130V616H332V59ZM527 649 438 477 386 497 448 680Z" glyph-name="lcaron" horiz-adv-x="580" unicode="&#318;" /><glyph d="M498 59V0H90V59H270V557H130V616H332V59ZM345 -61 283 -227H225L257 -61Z" glyph-name="lcommaaccent" horiz-adv-x="580" unicode="&#316;" /><glyph d="M498 59V0H90V59H270V557H130V616H332V59ZM521 339Q521 312 503.5 294.5Q486 277 460 277Q434 277 416 294.5Q398 312 398 339Q398 366 416 383.5Q434 401 460 401Q486 401 503.5 383.5Q521 366 521 339Z" glyph-name="ldot" horiz-adv-x="580" unicode="&#320;" /><glyph d="M63 283 479 522 505 470 181 283 505 98 479 44Z" glyph-name="less" horiz-adv-x="580" unicode="&lt;" /><glyph d="M61 358 486 554 510 499 203 358 510 217 486 161ZM505 107V48H73V107Z" glyph-name="lessequal" horiz-adv-x="580" unicode="&#8804;" /><glyph d="M444 155V326H74V385H506V155Z" glyph-name="logicalnot" horiz-adv-x="580" unicode="&#172;" /><glyph d="M250 0 90 290 250 580H330L490 290L330 0ZM420 290 290 527 160 290 290 52Z" glyph-name="lozenge" horiz-adv-x="580" unicode="&#9674;" /><glyph d="M132 266 270 345V557H130V616H332V380L424 433L454 381L332 311V59H498V0H90V59H270V276L162 214Z" glyph-name="lslash" horiz-adv-x="580" unicode="&#322;" /><glyph d="M25 59H72V363H24V422H131V373Q142 402 168.5 419Q195 436 226 436Q256 436 279.5 421.5Q303 407 314 375Q328 402 355.5 419Q383 436 417 436Q460 436 486 408Q512 380 512 318V59H560V0H452V308Q452 347 438 362.5Q424 378 401 378Q386 378 372 370Q358 362 346.5 347.5Q335 333 328.5 313Q322 293 322 269V59H368V0H262V308Q262 346 248 362Q234 378 211 378Q196 378 182 369.5Q168 361 156.5 346Q145 331 138.5 310.5Q132 290 132 267V59H178V0H25Z" glyph-name="m" horiz-adv-x="580" unicode="m" /><glyph d="M167 570H413V511H167Z" glyph-name="macron" horiz-adv-x="580" unicode="&#175;" /><glyph d="M506 305V246H74V305Z" glyph-name="minus" horiz-adv-x="580" unicode="&#8722;" /><glyph d="M291 -14Q249 -14 216.5 4Q184 22 168 54V-188H107V364H35V422H169V176Q169 147 180 123Q191 99 208.5 81.5Q226 64 247.5 54.5Q269 45 291 45Q312 45 334 54.5Q356 64 373.5 81.5Q391 99 402 123Q413 147 413 176V364H340V422H474V59H536V0H413V58Q397 25 365 5.5Q333 -14 291 -14Z" glyph-name="mu" horiz-adv-x="580" unicode="&#181;" /><glyph d="M290 317 434 461 475 420 331 276 475 132 434 91 290 235 146 91 105 132 249 276 105 420 146 461Z" glyph-name="multiply" horiz-adv-x="580" unicode="&#215;" /><glyph d="M47 59H115V363H53V422H177V360Q198 395 238 415.5Q278 436 329 436Q397 436 438.5 396.5Q480 357 480 282V59H548V0H350V59H418V266Q418 326 389.5 351.5Q361 377 321 377Q295 377 269.5 367.5Q244 358 223.5 340Q203 322 190 297.5Q177 273 177 243V59H245V0H47Z" glyph-name="n" horiz-adv-x="580" unicode="n" /><glyph d="M419 608 248 489 214 532 368 674ZM47 59H115V363H53V422H177V360Q198 395 238 415.5Q278 436 329 436Q397 436 438.5 396.5Q480 357 480 282V59H548V0H350V59H418V266Q418 326 389.5 351.5Q361 377 321 377Q295 377 269.5 367.5Q244 358 223.5 340Q203 322 190 297.5Q177 273 177 243V59H245V0H47Z" glyph-name="nacute" horiz-adv-x="580" unicode="&#324;" /><glyph d="M178 616 217 659 307 573 397 659 436 616 307 493ZM47 59H115V363H53V422H177V360Q198 395 238 415.5Q278 436 329 436Q397 436 438.5 396.5Q480 357 480 282V59H548V0H350V59H418V266Q418 326 389.5 351.5Q361 377 321 377Q295 377 269.5 367.5Q244 358 223.5 340Q203 322 190 297.5Q177 273 177 243V59H245V0H47Z" glyph-name="ncaron" horiz-adv-x="580" unicode="&#328;" /><glyph d="M346 -61 284 -227H226L258 -61ZM47 59H115V363H53V422H177V360Q198 395 238 415.5Q278 436 329 436Q397 436 438.5 396.5Q480 357 480 282V59H548V0H350V59H418V266Q418 326 389.5 351.5Q361 377 321 377Q295 377 269.5 367.5Q244 358 223.5 340Q203 322 190 297.5Q177 273 177 243V59H245V0H47Z" glyph-name="ncommaaccent" horiz-adv-x="580" unicode="&#326;" /><glyph d="M403 407Q403 433 393 456.5Q383 480 366 497.5Q349 515 324.5 525Q300 535 271 535Q242 535 218.5 525Q195 515 178.5 498Q162 481 153 457.5Q144 434 144 408Q144 353 178.5 316.5Q213 280 270 280Q329 280 363.5 316.5Q398 353 403 407ZM134 101Q152 78 178.5 62Q205 46 243 46Q282 46 315 64.5Q348 83 372 116.5Q396 150 410 197.5Q424 245 424 302Q424 306 424 316Q423 321 423 326Q417 307 403.5 288.5Q390 270 370 255Q350 240 323.5 230.5Q297 221 265 221Q225 221 190.5 234.5Q156 248 131 272.5Q106 297 91.5 331.5Q77 366 77 407Q77 445 90 478.5Q103 512 128 538Q153 564 189 579Q225 594 271 594Q330 594 371.5 570.5Q413 547 438.5 507Q464 467 475.5 415Q487 363 487 307Q487 230 467.5 170Q448 110 415 69Q382 28 337.5 7Q293 -14 243 -14Q192 -14 152.5 6.5Q113 27 88 60Z" glyph-name="nine" horiz-adv-x="580" unicode="9" /><glyph d="M215 -123Q223 -133 236.5 -140.5Q250 -148 269 -148Q289 -148 306 -138Q323 -128 335.5 -111Q348 -94 355.5 -71.5Q363 -49 363 -24V-17Q358 -34 336 -51.5Q314 -69 277 -69Q231 -69 198.5 -40.5Q166 -12 166 35Q166 79 197.5 110.5Q229 142 283 142Q318 142 343 128Q368 114 383.5 90.5Q399 67 406 38Q413 9 413 -21Q413 -60 401.5 -92Q390 -124 370 -147.5Q350 -171 324 -183.5Q298 -196 269 -196Q239 -196 215.5 -184Q192 -172 178 -155ZM282 -24Q311 -24 328.5 -6.5Q346 11 346 36Q346 59 328.5 76.5Q311 94 282 94Q254 94 236.5 77Q219 60 219 36Q219 11 236.5 -6.5Q254 -24 282 -24Z" glyph-name="nine.inf" horiz-adv-x="580" unicode="&#58746;" /><glyph glyph-name="nonbreakingspace" horiz-adv-x="580" unicode="&#160;" /><glyph glyph-name="nonmarkingreturn" horiz-adv-x="250" unicode="" /><glyph d="M193 165H74V224H228L290 326H74V385H325L399 508L444 480L386 385H506V326H351L289 224H506V165H254L181 44L137 71Z" glyph-name="notequal" horiz-adv-x="580" unicode="&#8800;" /><glyph d="M447 572Q446 560 439 546Q432 532 420.5 520Q409 508 393 500.5Q377 493 357 493Q336 493 320.5 500Q305 507 292 516Q279 525 267.5 532Q256 539 243 539Q224 539 213.5 526.5Q203 514 201 499L149 516Q150 528 156.5 542Q163 556 174.5 568Q186 580 202 587.5Q218 595 238 595Q260 595 275.5 588Q291 581 304 572Q317 563 328.5 556Q340 549 353 549Q372 549 382.5 561.5Q393 574 395 589ZM47 59H115V363H53V422H177V360Q198 395 238 415.5Q278 436 329 436Q397 436 438.5 396.5Q480 357 480 282V59H548V0H350V59H418V266Q418 326 389.5 351.5Q361 377 321 377Q295 377 269.5 367.5Q244 358 223.5 340Q203 322 190 297.5Q177 273 177 243V59H245V0H47Z" glyph-name="ntilde" horiz-adv-x="580" unicode="&#241;" /><glyph d="M88 411H186L219 580H282L249 411H374L407 580H470L437 411H536L525 353H427L403 235H503L493 177H392L358 0H295L329 177H204L170 0H107L141 177H45L55 235H151L175 353H77ZM215 235H340L363 353H238Z" glyph-name="numbersign" horiz-adv-x="580" unicode="#" /><glyph d="M64 211Q64 260 81 301Q98 342 128 372Q158 402 199.5 419Q241 436 290 436Q339 436 380.5 419Q422 402 452 372Q482 342 499 301Q516 260 516 211Q516 162 499 121Q482 80 452 50Q422 20 380.5 3Q339 -14 290 -14Q241 -14 199.5 3Q158 20 128 50Q98 80 81 121Q64 162 64 211ZM451 211Q451 246 439 276Q427 306 405.5 328.5Q384 351 354.5 364Q325 377 290 377Q255 377 225.5 364Q196 351 174.5 328.5Q153 306 141 276Q129 246 129 211Q129 176 141 146Q153 116 174.5 93.5Q196 71 225.5 58Q255 45 290 45Q325 45 354.5 58Q384 71 405.5 93.5Q427 116 439 146Q451 176 451 211Z" glyph-name="o" horiz-adv-x="580" unicode="o" /><glyph d="M398 608 226 489 193 532 346 674ZM64 211Q64 260 81 301Q98 342 128 372Q158 402 199.5 419Q241 436 290 436Q339 436 380.5 419Q422 402 452 372Q482 342 499 301Q516 260 516 211Q516 162 499 121Q482 80 452 50Q422 20 380.5 3Q339 -14 290 -14Q241 -14 199.5 3Q158 20 128 50Q98 80 81 121Q64 162 64 211ZM451 211Q451 246 439 276Q427 306 405.5 328.5Q384 351 354.5 364Q325 377 290 377Q255 377 225.5 364Q196 351 174.5 328.5Q153 306 141 276Q129 246 129 211Q129 176 141 146Q153 116 174.5 93.5Q196 71 225.5 58Q255 45 290 45Q325 45 354.5 58Q384 71 405.5 93.5Q427 116 439 146Q451 176 451 211Z" glyph-name="oacute" horiz-adv-x="580" unicode="&#243;" /><glyph d="M290 502Q235 502 199 535Q163 568 160 621L218 626Q221 597 239.5 576Q258 555 290 555Q321 555 340 576Q359 597 362 626L420 621Q417 568 381 535Q345 502 290 502ZM64 211Q64 260 81 301Q98 342 128 372Q158 402 199.5 419Q241 436 290 436Q339 436 380.5 419Q422 402 452 372Q482 342 499 301Q516 260 516 211Q516 162 499 121Q482 80 452 50Q422 20 380.5 3Q339 -14 290 -14Q241 -14 199.5 3Q158 20 128 50Q98 80 81 121Q64 162 64 211ZM451 211Q451 246 439 276Q427 306 405.5 328.5Q384 351 354.5 364Q325 377 290 377Q255 377 225.5 364Q196 351 174.5 328.5Q153 306 141 276Q129 246 129 211Q129 176 141 146Q153 116 174.5 93.5Q196 71 225.5 58Q255 45 290 45Q325 45 354.5 58Q384 71 405.5 93.5Q427 116 439 146Q451 176 451 211Z" glyph-name="obreve" horiz-adv-x="580" unicode="&#335;" /><glyph d="M290 659 419 537 380 493 290 579 200 493 161 537ZM64 211Q64 260 81 301Q98 342 128 372Q158 402 199.5 419Q241 436 290 436Q339 436 380.5 419Q422 402 452 372Q482 342 499 301Q516 260 516 211Q516 162 499 121Q482 80 452 50Q422 20 380.5 3Q339 -14 290 -14Q241 -14 199.5 3Q158 20 128 50Q98 80 81 121Q64 162 64 211ZM451 211Q451 246 439 276Q427 306 405.5 328.5Q384 351 354.5 364Q325 377 290 377Q255 377 225.5 364Q196 351 174.5 328.5Q153 306 141 276Q129 246 129 211Q129 176 141 146Q153 116 174.5 93.5Q196 71 225.5 58Q255 45 290 45Q325 45 354.5 58Q384 71 405.5 93.5Q427 116 439 146Q451 176 451 211Z" glyph-name="ocircumflex" horiz-adv-x="580" unicode="&#244;" /><glyph d="M248 569Q248 544 231.5 528Q215 512 191 512Q168 512 151 528Q134 544 134 569Q134 594 151 610Q168 626 191 626Q215 626 231.5 610Q248 594 248 569ZM446 569Q446 544 429 528Q412 512 389 512Q365 512 348.5 528Q332 544 332 569Q332 594 348.5 610Q365 626 389 626Q412 626 429 610Q446 594 446 569ZM64 211Q64 260 81 301Q98 342 128 372Q158 402 199.5 419Q241 436 290 436Q339 436 380.5 419Q422 402 452 372Q482 342 499 301Q516 260 516 211Q516 162 499 121Q482 80 452 50Q422 20 380.5 3Q339 -14 290 -14Q241 -14 199.5 3Q158 20 128 50Q98 80 81 121Q64 162 64 211ZM451 211Q451 246 439 276Q427 306 405.5 328.5Q384 351 354.5 364Q325 377 290 377Q255 377 225.5 364Q196 351 174.5 328.5Q153 306 141 276Q129 246 129 211Q129 176 141 146Q153 116 174.5 93.5Q196 71 225.5 58Q255 45 290 45Q325 45 354.5 58Q384 71 405.5 93.5Q427 116 439 146Q451 176 451 211Z" glyph-name="odieresis" horiz-adv-x="580" unicode="&#246;" /><glyph d="M557 61Q535 29 501.5 7.5Q468 -14 425 -14Q379 -14 345.5 10.5Q312 35 292 80Q255 -14 170 -14Q136 -14 108 2Q80 18 60.5 47.5Q41 77 30 118.5Q19 160 19 211Q19 262 30 303.5Q41 345 60.5 374.5Q80 404 108 420Q136 436 170 436Q212 436 244 411.5Q276 387 294 341Q313 386 345 411Q377 436 419 436Q454 436 481.5 418.5Q509 401 527.5 370Q546 339 556 297Q566 255 566 206V193H325Q329 126 356 85Q383 44 426 44Q454 44 476.5 60Q499 76 516 101ZM260 211Q260 247 253.5 277.5Q247 308 235 330Q223 352 206.5 364.5Q190 377 170 377Q151 377 134.5 364.5Q118 352 106 330Q94 308 87.5 277.5Q81 247 81 211Q81 175 87.5 144.5Q94 114 106 92Q118 70 134.5 57.5Q151 45 170 45Q190 45 206.5 57.5Q223 70 235 92Q247 114 253.5 144.5Q260 175 260 211ZM500 247Q496 304 474 341Q452 378 419 378Q382 378 357 341Q332 304 327 247Z" glyph-name="oe" horiz-adv-x="580" unicode="&#339;" /><glyph d="M361 0Q308 -29 278 -58.5Q248 -88 248 -116Q248 -131 257 -142Q266 -153 286 -153Q306 -153 324.5 -142.5Q343 -132 361 -115L391 -152Q368 -175 340.5 -190.5Q313 -206 279 -206Q236 -206 212.5 -182.5Q189 -159 189 -123Q189 -88 211 -58.5Q233 -29 278 0Z" glyph-name="ogonek" horiz-adv-x="580" unicode="&#731;" /><glyph d="M233 674 387 533 353 489 182 608ZM64 211Q64 260 81 301Q98 342 128 372Q158 402 199.5 419Q241 436 290 436Q339 436 380.5 419Q422 402 452 372Q482 342 499 301Q516 260 516 211Q516 162 499 121Q482 80 452 50Q422 20 380.5 3Q339 -14 290 -14Q241 -14 199.5 3Q158 20 128 50Q98 80 81 121Q64 162 64 211ZM451 211Q451 246 439 276Q427 306 405.5 328.5Q384 351 354.5 364Q325 377 290 377Q255 377 225.5 364Q196 351 174.5 328.5Q153 306 141 276Q129 246 129 211Q129 176 141 146Q153 116 174.5 93.5Q196 71 225.5 58Q255 45 290 45Q325 45 354.5 58Q384 71 405.5 93.5Q427 116 439 146Q451 176 451 211Z" glyph-name="ograve" horiz-adv-x="580" unicode="&#242;" /><glyph d="M111 322Q111 235 147 175.5Q183 116 247 64V0H55V59H173Q150 75 127 100Q104 125 85 158Q66 191 54.5 232.5Q43 274 43 322Q43 381 61 431Q79 481 111.5 517Q144 553 189.5 573.5Q235 594 290 594Q345 594 390.5 573.5Q436 553 468.5 517Q501 481 519 431Q537 381 537 322Q537 274 525.5 232.5Q514 191 495 158Q476 125 453 100Q430 75 407 59H525V0H333V64Q398 116 433.5 175.5Q469 235 469 322Q469 364 457.5 402.5Q446 441 423.5 470Q401 499 367.5 516Q334 533 290 533Q246 533 212.5 516Q179 499 156.5 470Q134 441 122.5 402.5Q111 364 111 322Z" glyph-name="ohm" horiz-adv-x="580" unicode="&#59425;" /><glyph d="M351 612 183 490 150 531 300 675ZM537 612 369 490 336 531 486 675ZM64 211Q64 260 81 301Q98 342 128 372Q158 402 199.5 419Q241 436 290 436Q339 436 380.5 419Q422 402 452 372Q482 342 499 301Q516 260 516 211Q516 162 499 121Q482 80 452 50Q422 20 380.5 3Q339 -14 290 -14Q241 -14 199.5 3Q158 20 128 50Q98 80 81 121Q64 162 64 211ZM451 211Q451 246 439 276Q427 306 405.5 328.5Q384 351 354.5 364Q325 377 290 377Q255 377 225.5 364Q196 351 174.5 328.5Q153 306 141 276Q129 246 129 211Q129 176 141 146Q153 116 174.5 93.5Q196 71 225.5 58Q255 45 290 45Q325 45 354.5 58Q384 71 405.5 93.5Q427 116 439 146Q451 176 451 211Z" glyph-name="ohungarumlaut" horiz-adv-x="580" unicode="&#337;" /><glyph d="M167 570H413V511H167ZM64 211Q64 260 81 301Q98 342 128 372Q158 402 199.5 419Q241 436 290 436Q339 436 380.5 419Q422 402 452 372Q482 342 499 301Q516 260 516 211Q516 162 499 121Q482 80 452 50Q422 20 380.5 3Q339 -14 290 -14Q241 -14 199.5 3Q158 20 128 50Q98 80 81 121Q64 162 64 211ZM451 211Q451 246 439 276Q427 306 405.5 328.5Q384 351 354.5 364Q325 377 290 377Q255 377 225.5 364Q196 351 174.5 328.5Q153 306 141 276Q129 246 129 211Q129 176 141 146Q153 116 174.5 93.5Q196 71 225.5 58Q255 45 290 45Q325 45 354.5 58Q384 71 405.5 93.5Q427 116 439 146Q451 176 451 211Z" glyph-name="omacron" horiz-adv-x="580" unicode="&#333;" /><glyph d="M107 444 266 580H330V59H497V0H89V59H268V503L144 397Z" glyph-name="one" horiz-adv-x="580" unicode="1" /><glyph d="M415 -139V-188H167V-139H270V71L207 19L177 58L267 134H322V-139Z" glyph-name="one.inf" horiz-adv-x="580" unicode="&#58738;" /><glyph d="M72 -22 32 12 511 602 551 568ZM239 391V348H29V391H115V568L62 524L37 558L113 622H162V391ZM350 49 456 135Q473 150 486 166Q499 182 499 198Q499 212 487 224.5Q475 237 452 237Q429 237 415 223.5Q401 210 391 192L350 211Q365 242 390 261Q415 280 452 280Q496 280 521.5 255.5Q547 231 547 199Q547 175 532.5 153.5Q518 132 490 109L405 41H507V79H549V0H350Z" glyph-name="onehalf" horiz-adv-x="580" unicode="&#189;" /><glyph d="M239 391V348H29V391H115V568L62 524L37 558L113 622H162V391ZM72 -22 32 12 511 602 551 568ZM440 274H498V116H532V76H498V42H532V0H408V42H455V76H325V120ZM455 116V227L371 116Z" glyph-name="onequarter" horiz-adv-x="580" unicode="&#188;" /><glyph d="M415 349V300H167V349H270V559L207 507L177 546L267 622H322V349Z" glyph-name="onesuperior" horiz-adv-x="580" unicode="&#185;" /><glyph d="M283 502Q309 502 330 498Q351 494 368 489V512Q368 547 344.5 563.5Q321 580 288 580Q261 580 238 569.5Q215 559 195 542L159 579Q179 598 210.5 614.5Q242 631 288 631Q348 631 386.5 601.5Q425 572 425 513V367H471V314H368V352Q353 329 322 316.5Q291 304 256 304Q209 304 175.5 328Q142 352 142 399Q142 427 154.5 446.5Q167 466 187 478.5Q207 491 232.5 496.5Q258 502 283 502ZM368 443Q351 449 329.5 453Q308 457 286 457Q252 457 226 444.5Q200 432 200 402Q200 376 219 364.5Q238 353 264 353Q283 353 301.5 358.5Q320 364 335 374.5Q350 385 359 399.5Q368 414 368 431Z" glyph-name="ordfeminine" horiz-adv-x="580" unicode="&#170;" /><glyph d="M290 304Q254 304 223.5 316.5Q193 329 170.5 350.5Q148 372 135.5 402Q123 432 123 467Q123 502 135.5 532Q148 562 170.5 584Q193 606 223.5 618.5Q254 631 290 631Q326 631 356.5 618.5Q387 606 409.5 584Q432 562 444.5 532Q457 502 457 467Q457 432 444.5 402Q432 372 409.5 350.5Q387 329 356.5 316.5Q326 304 290 304ZM290 358Q337 358 367.5 389Q398 420 398 467Q398 514 367.5 545Q337 576 290 576Q243 576 213 545Q183 514 183 467Q183 420 213 389Q243 358 290 358Z" glyph-name="ordmasculine" horiz-adv-x="580" unicode="&#186;" /><glyph d="M451 373Q482 343 499 301.5Q516 260 516 211Q516 162 499 121Q482 80 452 50Q422 20 380.5 3Q339 -14 290 -14Q258 -14 230 -7Q202 0 178 13L117 -66L75 -33L134 45Q101 75 82.5 117.5Q64 160 64 211Q64 260 81 301Q98 342 128 372Q158 402 199.5 419Q241 436 290 436Q355 436 408 405L467 483L509 449ZM129 211Q129 177 140 147.5Q151 118 172 96L370 356Q353 366 333 371.5Q313 377 290 377Q255 377 225.5 364Q196 351 174.5 328.5Q153 306 141 276Q129 246 129 211ZM451 211Q451 276 412 321L216 63Q232 55 250.5 50Q269 45 290 45Q325 45 354.5 58Q384 71 405.5 93.5Q427 116 439 146Q451 176 451 211Z" glyph-name="oslash" horiz-adv-x="580" unicode="&#248;" /><glyph d="M439 572Q438 560 431 546Q424 532 412.5 520Q401 508 385 500.5Q369 493 349 493Q328 493 312.5 500Q297 507 284 516Q271 525 259.5 532Q248 539 235 539Q216 539 205.5 526.5Q195 514 193 499L141 516Q142 528 148.5 542Q155 556 166.5 568Q178 580 194 587.5Q210 595 230 595Q252 595 267.5 588Q283 581 296 572Q309 563 320.5 556Q332 549 345 549Q364 549 374 561.5Q384 574 387 589ZM64 211Q64 260 81 301Q98 342 128 372Q158 402 199.5 419Q241 436 290 436Q339 436 380.5 419Q422 402 452 372Q482 342 499 301Q516 260 516 211Q516 162 499 121Q482 80 452 50Q422 20 380.5 3Q339 -14 290 -14Q241 -14 199.5 3Q158 20 128 50Q98 80 81 121Q64 162 64 211ZM451 211Q451 246 439 276Q427 306 405.5 328.5Q384 351 354.5 364Q325 377 290 377Q255 377 225.5 364Q196 351 174.5 328.5Q153 306 141 276Q129 246 129 211Q129 176 141 146Q153 116 174.5 93.5Q196 71 225.5 58Q255 45 290 45Q325 45 354.5 58Q384 71 405.5 93.5Q427 116 439 146Q451 176 451 211Z" glyph-name="otilde" horiz-adv-x="580" unicode="&#245;" /><glyph d="M34 422H162V352Q181 385 223 410.5Q265 436 323 436Q368 436 407 419Q446 402 474 372Q502 342 518 301Q534 260 534 211Q534 162 518 121Q502 80 474 50Q446 20 407 3Q368 -14 323 -14Q265 -14 223 11Q181 36 162 69V-129H270V-188H34V-129H100V363H34ZM469 211Q469 246 458 276.5Q447 307 427 329.5Q407 352 379.5 365Q352 378 319 378Q285 378 256.5 366Q228 354 207 333Q186 312 174 283Q162 254 162 221V200Q162 167 174 138.5Q186 110 207 89Q228 68 256.5 56Q285 44 319 44Q352 44 379.5 56.5Q407 69 427 91.5Q447 114 458 144.5Q469 175 469 211Z" glyph-name="p" horiz-adv-x="580" unicode="p" /><glyph d="M240 276Q207 276 177 286.5Q147 297 124.5 316.5Q102 336 89 364.5Q76 393 76 428Q76 463 89 491Q102 519 124.5 539Q147 559 177 569.5Q207 580 240 580H517V521H458V-54H396V521H302V-54H240Z" glyph-name="paragraph" horiz-adv-x="580" unicode="&#182;" /><glyph d="M175 259Q175 328 190.5 386.5Q206 445 232 495Q258 545 293 586.5Q328 628 368 664L410 619Q375 586 344 548Q313 510 290 465.5Q267 421 253.5 369.5Q240 318 240 259Q240 200 253.5 148.5Q267 97 290 52.5Q313 8 344 -30Q375 -68 410 -101L368 -146Q328 -110 293 -68.5Q258 -27 232 23Q206 73 190.5 131.5Q175 190 175 259Z" glyph-name="parenleft" horiz-adv-x="580" unicode="(" /><glyph d="M405 259Q405 190 390 131.5Q375 73 348.5 23Q322 -27 287 -68.5Q252 -110 212 -146L170 -101Q205 -68 236 -30Q267 8 290 52.5Q313 97 326.5 148.5Q340 200 340 259Q340 318 326.5 369.5Q313 421 290 465.5Q267 510 236 548Q205 586 170 619L212 664Q252 628 287 586.5Q322 545 348.5 495Q375 445 390 386.5Q405 328 405 259Z" glyph-name="parenright" horiz-adv-x="580" unicode=")" /><glyph d="M137 527Q162 557 197.5 575.5Q233 594 278 594Q327 594 365.5 572Q404 550 431 510.5Q458 471 472.5 416.5Q487 362 487 296Q487 245 474.5 190Q462 135 435 90Q408 45 365 15.5Q322 -14 260 -14Q218 -14 186 -1Q154 12 132 35.5Q110 59 98.5 91Q87 123 87 161Q87 197 99 232.5Q111 268 135.5 296Q160 324 197 341.5Q234 359 285 359Q312 359 335 352Q358 345 375 334.5Q392 324 404.5 311Q417 298 423 285Q425 332 417.5 376.5Q410 421 392 456.5Q374 492 345 513.5Q316 535 275 535Q240 535 218.5 520Q197 505 183 489ZM284 300Q250 300 225.5 288Q201 276 185 256.5Q169 237 161.5 213Q154 189 154 164Q154 110 182.5 77.5Q211 45 261 45Q299 45 327 63Q355 81 374 107Q393 133 403.5 162.5Q414 192 416 214Q409 232 395.5 247.5Q382 263 364 275Q346 287 325.5 293.5Q305 300 284 300Z" glyph-name="partialdiff" horiz-adv-x="580" unicode="&#8706;" /><glyph d="M87 -17 48 14 493 596 531 565ZM27 469Q27 496 36.5 518.5Q46 541 63 558Q80 575 102.5 584.5Q125 594 151 594Q177 594 200 584.5Q223 575 240 558Q257 541 266.5 518.5Q276 496 276 469Q276 442 266.5 419.5Q257 397 240 380Q223 363 200 353.5Q177 344 151 344Q125 344 102.5 353.5Q80 363 63 380Q46 397 36.5 419.5Q27 442 27 469ZM83 469Q83 439 102.5 418.5Q122 398 151 398Q180 398 200 418.5Q220 439 220 469Q220 499 200 520Q180 541 151 541Q122 541 102.5 520Q83 499 83 469ZM304 110Q304 137 313.5 159.5Q323 182 340 199Q357 216 379.5 225.5Q402 235 428 235Q454 235 477 225.5Q500 216 517 199Q534 182 543.5 159.5Q553 137 553 110Q553 84 543.5 61Q534 38 517 21.5Q500 5 477 -4.5Q454 -14 428 -14Q402 -14 379.5 -4.5Q357 5 340 21.5Q323 38 313.5 61Q304 84 304 110ZM360 110Q360 81 379.5 60Q399 39 428 39Q457 39 477 60Q497 81 497 110Q497 140 477 161Q457 182 428 182Q399 182 379.5 161Q360 140 360 110Z" glyph-name="percent" horiz-adv-x="580" unicode="%" /><glyph d="M212 64Q212 97 233.5 119Q255 141 290 141Q325 141 346.5 119Q368 97 368 64Q368 31 346.5 9Q325 -13 290 -13Q255 -13 233.5 9Q212 31 212 64Z" glyph-name="period" horiz-adv-x="580" unicode="." /><glyph d="M212 290Q212 324 233.5 345.5Q255 367 290 367Q325 367 346.5 345.5Q368 324 368 290Q368 256 346.5 235Q325 214 290 214Q255 214 233.5 235Q212 256 212 290Z" glyph-name="periodcentered" horiz-adv-x="580" unicode="&#183;" /><glyph d="M40 -17 1 8 357 597 396 572ZM39 497Q39 538 67 565.5Q95 593 134 593Q173 593 201.5 565.5Q230 538 230 497Q230 477 222.5 459Q215 441 201.5 428Q188 415 171 407.5Q154 400 134 400Q95 400 67 428Q39 456 39 497ZM87 497Q87 476 100.5 461Q114 446 134 446Q154 446 168 461Q182 476 182 497Q182 518 168 533Q154 548 134 548Q114 548 100.5 533Q87 518 87 497ZM358 84Q358 42 329.5 14.5Q301 -13 262 -13Q223 -13 195 14.5Q167 42 167 84Q167 125 195 152.5Q223 180 262 180Q301 180 329.5 152.5Q358 125 358 84ZM310 84Q310 105 296 120Q282 135 262 135Q243 135 229 120Q215 105 215 84Q215 62 229 47.5Q243 33 262 33Q282 33 296 47.5Q310 62 310 84ZM575 84Q575 42 547 14.5Q519 -13 480 -13Q441 -13 412.5 14.5Q384 42 384 84Q384 125 412.5 152.5Q441 180 480 180Q519 180 547 152.5Q575 125 575 84ZM527 84Q527 105 513.5 120Q500 135 480 135Q461 135 446.5 120Q432 105 432 84Q432 62 446.5 47.5Q461 33 480 33Q500 33 513.5 47.5Q527 62 527 84Z" glyph-name="perthousand" horiz-adv-x="580" unicode="&#8240;" /><glyph d="M505 0H369V364H209V59H264V0H92V59H147V364H72V422H505V364H430V59H505Z" glyph-name="pi" horiz-adv-x="580" unicode="&#960;" /><glyph d="M319 488V305H503V246H319V61H260V246H76V305H260V488Z" glyph-name="plus" horiz-adv-x="580" unicode="+" /><glyph d="M319 534V382H503V323H319V169H260V323H76V382H260V534ZM506 107V48H74V107Z" glyph-name="plusminus" horiz-adv-x="580" unicode="&#177;" /><glyph d="M410 521H170V59H224V0H51V59H106V521H29V580H551V521H474V59H529V0H356V59H410Z" glyph-name="product" horiz-adv-x="580" unicode="&#8719;" /><glyph d="M546 363H480V-129H546V-188H310V-129H418V69Q399 36 357 11Q315 -14 257 -14Q212 -14 173 3Q134 20 106 50Q78 80 62 121Q46 162 46 211Q46 260 62 301Q78 342 106 372Q134 402 173 419Q212 436 257 436Q315 436 357 410.5Q399 385 418 352V422H546ZM111 211Q111 175 122 144.5Q133 114 153 91.5Q173 69 200.5 56.5Q228 44 261 44Q295 44 323.5 56Q352 68 373 89Q394 110 406 138.5Q418 167 418 200V221Q418 254 406 283Q394 312 373 333Q352 354 323.5 366Q295 378 261 378Q228 378 200.5 365Q173 352 153 329.5Q133 307 122 276.5Q111 246 111 211Z" glyph-name="q" horiz-adv-x="580" unicode="q" /><glyph d="M285 597Q330 597 365.5 583.5Q401 570 426 547Q451 524 464.5 494Q478 464 478 430Q478 393 464 363.5Q450 334 427 311.5Q404 289 375.5 273.5Q347 258 317 247V174H253V285Q285 293 313 306.5Q341 320 363 338Q385 356 397.5 379Q410 402 410 430Q410 450 402 469.5Q394 489 378.5 504Q363 519 339.5 528Q316 537 285 537Q256 537 233.5 528.5Q211 520 194 506.5Q177 493 164 476Q151 459 141 441L86 473Q98 496 116.5 518Q135 540 159.5 557.5Q184 575 215.5 586Q247 597 285 597ZM287 -13Q259 -13 241 5Q223 23 223 51Q223 79 241 97Q259 115 287 115Q315 115 333 97Q351 79 351 51Q351 23 333 5Q315 -13 287 -13Z" glyph-name="question" horiz-adv-x="580" unicode="?" /><glyph d="M295 -141Q250 -141 214.5 -127.5Q179 -114 154 -91Q129 -68 115.5 -38Q102 -8 102 26Q102 64 116 93Q130 122 153 144.5Q176 167 204.5 183Q233 199 263 209V282H327V171Q296 163 267.5 149.5Q239 136 217 118Q195 100 182.5 77Q170 54 170 26Q170 6 178 -13.5Q186 -33 202 -48Q218 -63 241 -72Q264 -81 295 -81Q324 -81 346.5 -72.5Q369 -64 386 -50.5Q403 -37 416 -20Q429 -3 439 15L494 -17Q482 -40 463.5 -62Q445 -84 420.5 -101.5Q396 -119 364.5 -130Q333 -141 295 -141ZM293 341Q265 341 247 359Q229 377 229 405Q229 433 247 451Q265 469 293 469Q321 469 339 451Q357 433 357 405Q357 377 339 359Q321 341 293 341Z" glyph-name="questiondown" horiz-adv-x="580" unicode="&#191;" /><glyph d="M441 616 416 371H357L332 616ZM248 616 223 371H164L139 616Z" glyph-name="quotedbl" horiz-adv-x="580" unicode="&quot;" /><glyph d="M285 96 169 -128H96L168 96ZM484 96 368 -128H295L366 96Z" glyph-name="quotedblbase" horiz-adv-x="580" unicode="&#8222;" /><glyph d="M412 616 484 392H411L295 616ZM214 616 285 392H212L96 616Z" glyph-name="quotedblleft" horiz-adv-x="580" unicode="&#8220;" /><glyph d="M285 616 169 392H96L168 616ZM484 616 368 392H295L366 616Z" glyph-name="quotedblright" horiz-adv-x="580" unicode="&#8221;" /><glyph d="M313 616 384 392H311L195 616Z" glyph-name="quoteleft" horiz-adv-x="580" unicode="&#8216;" /><glyph d="M385 616 269 392H196L267 616Z" glyph-name="quoteright" horiz-adv-x="580" unicode="&#8217;" /><glyph d="M385 96 269 -128H196L267 96Z" glyph-name="quotesinglbase" horiz-adv-x="580" unicode="&#8218;" /><glyph d="M345 616 319 371H261L235 616Z" glyph-name="quotesingle" horiz-adv-x="580" unicode="&apos;" /><glyph d="M477 327Q460 379 405 379Q374 379 344 366Q314 353 291.5 331Q269 309 255 279.5Q241 250 241 218V59H407V0H70V59H179V363H91V422H241V343Q251 361 267 378Q283 395 304.5 407.5Q326 420 351.5 428Q377 436 406 436Q455 436 489 412.5Q523 389 535 346Z" glyph-name="r" horiz-adv-x="580" unicode="r" /><glyph d="M438 608 267 489 233 532 387 674ZM477 327Q460 379 405 379Q374 379 344 366Q314 353 291.5 331Q269 309 255 279.5Q241 250 241 218V59H407V0H70V59H179V363H91V422H241V343Q251 361 267 378Q283 395 304.5 407.5Q326 420 351.5 428Q377 436 406 436Q455 436 489 412.5Q523 389 535 346Z" glyph-name="racute" horiz-adv-x="580" unicode="&#341;" /><glyph d="M189 0 113 332H44V391H163L234 75L485 630H550L265 0Z" glyph-name="radical" horiz-adv-x="580" unicode="&#8730;" /><glyph d="M187 616 226 659 316 573 406 659 445 616 316 493ZM477 327Q460 379 405 379Q374 379 344 366Q314 353 291.5 331Q269 309 255 279.5Q241 250 241 218V59H407V0H70V59H179V363H91V422H241V343Q251 361 267 378Q283 395 304.5 407.5Q326 420 351.5 428Q377 436 406 436Q455 436 489 412.5Q523 389 535 346Z" glyph-name="rcaron" horiz-adv-x="580" unicode="&#345;" /><glyph d="M261 -61 199 -227H141L173 -61ZM477 327Q460 379 405 379Q374 379 344 366Q314 353 291.5 331Q269 309 255 279.5Q241 250 241 218V59H407V0H70V59H179V363H91V422H241V343Q251 361 267 378Q283 395 304.5 407.5Q326 420 351.5 428Q377 436 406 436Q455 436 489 412.5Q523 389 535 346Z" glyph-name="rcommaaccent" horiz-adv-x="580" unicode="&#343;" /><glyph d="M290 -3Q233 -3 182.5 18.5Q132 40 94.5 79Q57 118 35 172Q13 226 13 290Q13 354 35 407.5Q57 461 94.5 500Q132 539 182.5 560.5Q233 582 290 582Q347 582 397.5 560.5Q448 539 485.5 500Q523 461 545 407.5Q567 354 567 290Q567 226 545 172Q523 118 485.5 79Q448 40 397.5 18.5Q347 -3 290 -3ZM290 46Q336 46 377 64Q418 82 448.5 114.5Q479 147 496.5 191.5Q514 236 514 290Q514 343 496.5 388Q479 433 448.5 465Q418 497 377 515Q336 533 290 533Q244 533 203 515Q162 497 131.5 465Q101 433 83.5 388Q66 343 66 290Q66 236 83.5 191.5Q101 147 131.5 114.5Q162 82 203 64Q244 46 290 46ZM288 264H239V186H278V142H160V186H192V392H160V436H298Q345 436 375 414.5Q405 393 405 350Q405 318 386.5 298Q368 278 338 270L388 186H430V142H359ZM239 308H295Q324 308 340.5 319Q357 330 357 350Q357 373 339.5 382.5Q322 392 287 392H239Z" glyph-name="registered" horiz-adv-x="580" unicode="&#174;" /><glyph d="M391 584Q391 542 362 512.5Q333 483 290 483Q247 483 218 512.5Q189 542 189 584Q189 627 218 656Q247 685 290 685Q333 685 362 656Q391 627 391 584ZM339 584Q339 605 326 620Q313 635 290 635Q267 635 254 620Q241 605 241 584Q241 563 254 548Q267 533 290 533Q313 533 326 548Q339 563 339 584Z" glyph-name="ring" horiz-adv-x="580" unicode="&#730;" /><glyph d="M433 109Q433 127 422 139Q411 151 392.5 159.5Q374 168 350 173Q326 178 299 183Q265 189 229.5 197Q194 205 165.5 219Q137 233 119 256Q101 279 101 316Q101 347 114.5 369.5Q128 392 150.5 407Q173 422 202 429Q231 436 262 436Q316 436 353.5 419Q391 402 410 379V422H468V280H416Q414 303 401 321.5Q388 340 367.5 353Q347 366 320.5 373Q294 380 265 380Q246 380 228 376.5Q210 373 196 365.5Q182 358 173.5 346.5Q165 335 165 318Q165 299 177.5 286.5Q190 274 210 266Q230 258 257 252.5Q284 247 312 242Q345 236 378 228Q411 220 437.5 205.5Q464 191 480.5 168.5Q497 146 497 111Q497 82 484 58.5Q471 35 448 19Q425 3 393.5 -5.5Q362 -14 324 -14Q268 -14 224 2Q180 18 154 48V0H96V149H148Q150 123 165.5 103Q181 83 205.5 69.5Q230 56 260.5 49Q291 42 322 42Q370 42 401.5 59Q433 76 433 109Z" glyph-name="s" horiz-adv-x="580" unicode="s" /><glyph d="M395 608 223 489 189 532 343 674ZM433 109Q433 127 422 139Q411 151 392.5 159.5Q374 168 350 173Q326 178 299 183Q265 189 229.5 197Q194 205 165.5 219Q137 233 119 256Q101 279 101 316Q101 347 114.5 369.5Q128 392 150.5 407Q173 422 202 429Q231 436 262 436Q316 436 353.5 419Q391 402 410 379V422H468V280H416Q414 303 401 321.5Q388 340 367.5 353Q347 366 320.5 373Q294 380 265 380Q246 380 228 376.5Q210 373 196 365.5Q182 358 173.5 346.5Q165 335 165 318Q165 299 177.5 286.5Q190 274 210 266Q230 258 257 252.5Q284 247 312 242Q345 236 378 228Q411 220 437.5 205.5Q464 191 480.5 168.5Q497 146 497 111Q497 82 484 58.5Q471 35 448 19Q425 3 393.5 -5.5Q362 -14 324 -14Q268 -14 224 2Q180 18 154 48V0H96V149H148Q150 123 165.5 103Q181 83 205.5 69.5Q230 56 260.5 49Q291 42 322 42Q370 42 401.5 59Q433 76 433 109Z" glyph-name="sacute" horiz-adv-x="580" unicode="&#347;" /><glyph d="M156 616 195 659 285 573 374 659 413 616 285 493ZM433 109Q433 127 422 139Q411 151 392.5 159.5Q374 168 350 173Q326 178 299 183Q265 189 229.5 197Q194 205 165.5 219Q137 233 119 256Q101 279 101 316Q101 347 114.5 369.5Q128 392 150.5 407Q173 422 202 429Q231 436 262 436Q316 436 353.5 419Q391 402 410 379V422H468V280H416Q414 303 401 321.5Q388 340 367.5 353Q347 366 320.5 373Q294 380 265 380Q246 380 228 376.5Q210 373 196 365.5Q182 358 173.5 346.5Q165 335 165 318Q165 299 177.5 286.5Q190 274 210 266Q230 258 257 252.5Q284 247 312 242Q345 236 378 228Q411 220 437.5 205.5Q464 191 480.5 168.5Q497 146 497 111Q497 82 484 58.5Q471 35 448 19Q425 3 393.5 -5.5Q362 -14 324 -14Q268 -14 224 2Q180 18 154 48V0H96V149H148Q150 123 165.5 103Q181 83 205.5 69.5Q230 56 260.5 49Q291 42 322 42Q370 42 401.5 59Q433 76 433 109Z" glyph-name="scaron" horiz-adv-x="580" unicode="&#353;" /><glyph d="M228 -146Q242 -165 256 -175.5Q270 -186 293 -186Q316 -186 330 -174.5Q344 -163 344 -142Q344 -122 330 -111Q316 -100 298 -100Q284 -100 271 -105L235 -80L270 -10Q232 -4 202.5 11Q173 26 154 48V0H96V149H148Q150 123 165.5 103Q181 83 205.5 69.5Q230 56 260.5 49Q291 42 322 42Q370 42 401.5 59Q433 76 433 109Q433 127 422 139Q411 151 392.5 159.5Q374 168 350 173Q326 178 299 183Q265 189 229.5 197Q194 205 165.5 219Q137 233 119 256Q101 279 101 316Q101 347 114.5 369.5Q128 392 150.5 407Q173 422 202 429Q231 436 262 436Q316 436 353.5 419Q391 402 410 379V422H468V280H416Q414 303 401 321.5Q388 340 367.5 353Q347 366 320.5 373Q294 380 265 380Q246 380 228 376.5Q210 373 196 365.5Q182 358 173.5 346.5Q165 335 165 318Q165 299 177.5 286.5Q190 274 210 266Q230 258 257 252.5Q284 247 312 242Q345 236 378 228Q411 220 437.5 205.5Q464 191 480.5 168.5Q497 146 497 111Q497 53 448.5 19.5Q400 -14 323 -14H311L290 -59Q298 -57 304 -57Q342 -57 367.5 -81Q393 -105 393 -141Q393 -183 363.5 -206.5Q334 -230 293 -230Q258 -230 231.5 -213Q205 -196 192 -173Z" glyph-name="scedilla" horiz-adv-x="580" unicode="&#351;" /><glyph d="M283 659 412 537 373 493 283 579 193 493 154 537ZM433 109Q433 127 422 139Q411 151 392.5 159.5Q374 168 350 173Q326 178 299 183Q265 189 229.5 197Q194 205 165.5 219Q137 233 119 256Q101 279 101 316Q101 347 114.5 369.5Q128 392 150.5 407Q173 422 202 429Q231 436 262 436Q316 436 353.5 419Q391 402 410 379V422H468V280H416Q414 303 401 321.5Q388 340 367.5 353Q347 366 320.5 373Q294 380 265 380Q246 380 228 376.5Q210 373 196 365.5Q182 358 173.5 346.5Q165 335 165 318Q165 299 177.5 286.5Q190 274 210 266Q230 258 257 252.5Q284 247 312 242Q345 236 378 228Q411 220 437.5 205.5Q464 191 480.5 168.5Q497 146 497 111Q497 82 484 58.5Q471 35 448 19Q425 3 393.5 -5.5Q362 -14 324 -14Q268 -14 224 2Q180 18 154 48V0H96V149H148Q150 123 165.5 103Q181 83 205.5 69.5Q230 56 260.5 49Q291 42 322 42Q370 42 401.5 59Q433 76 433 109Z" glyph-name="scircumflex" horiz-adv-x="580" unicode="&#349;" /><glyph d="M352 -61 290 -227H233L265 -61ZM433 109Q433 127 422 139Q411 151 392.5 159.5Q374 168 350 173Q326 178 299 183Q265 189 229.5 197Q194 205 165.5 219Q137 233 119 256Q101 279 101 316Q101 347 114.5 369.5Q128 392 150.5 407Q173 422 202 429Q231 436 262 436Q316 436 353.5 419Q391 402 410 379V422H468V280H416Q414 303 401 321.5Q388 340 367.5 353Q347 366 320.5 373Q294 380 265 380Q246 380 228 376.5Q210 373 196 365.5Q182 358 173.5 346.5Q165 335 165 318Q165 299 177.5 286.5Q190 274 210 266Q230 258 257 252.5Q284 247 312 242Q345 236 378 228Q411 220 437.5 205.5Q464 191 480.5 168.5Q497 146 497 111Q497 82 484 58.5Q471 35 448 19Q425 3 393.5 -5.5Q362 -14 324 -14Q268 -14 224 2Q180 18 154 48V0H96V149H148Q150 123 165.5 103Q181 83 205.5 69.5Q230 56 260.5 49Q291 42 322 42Q370 42 401.5 59Q433 76 433 109Z" glyph-name="scommaaccent" horiz-adv-x="580" unicode="&#537;" /><glyph d="M496 151Q496 116 478.5 92Q461 68 431 52Q441 38 447 19Q453 0 453 -24Q453 -61 439 -87.5Q425 -114 402.5 -130.5Q380 -147 351.5 -155Q323 -163 294 -163Q224 -163 176 -124.5Q128 -86 113 -24L171 -6Q185 -51 215 -78.5Q245 -106 293 -106Q311 -106 328.5 -101.5Q346 -97 359.5 -87Q373 -77 381 -61.5Q389 -46 389 -25Q389 -7 383 6.5Q377 20 367 30Q357 40 344.5 48Q332 56 320 63L183 145Q132 176 108 208Q84 240 84 279Q84 314 101.5 338.5Q119 363 149 379Q139 393 133 412Q127 431 127 455Q127 492 141 518.5Q155 545 177.5 561.5Q200 578 228.5 586Q257 594 286 594Q356 594 404 555.5Q452 517 467 455L409 437Q395 482 365 509.5Q335 537 287 537Q269 537 251.5 532.5Q234 528 220.5 518Q207 508 199 492.5Q191 477 191 456Q191 438 197 424.5Q203 411 213 401Q223 391 235.5 383.5Q248 376 260 368L397 286Q448 255 472 223Q496 191 496 151ZM232 311Q221 318 209.5 324.5Q198 331 188 339Q170 330 158.5 316Q147 302 147 282Q147 262 162.5 242Q178 222 210 202L348 120Q359 113 370.5 106.5Q382 100 392 92Q410 101 421.5 115Q433 129 433 149Q433 169 417.5 189Q402 209 370 229Z" glyph-name="section" horiz-adv-x="580" unicode="&#167;" /><glyph d="M369 96 263 -172H187L236 96ZM223 348Q223 381 244.5 403Q266 425 301 425Q336 425 357.5 403Q379 381 379 348Q379 315 357.5 293Q336 271 301 271Q266 271 244.5 293Q223 315 223 348Z" glyph-name="semicolon" horiz-adv-x="580" unicode=";" /><glyph d="M219 0 425 521H153V437H91V580H490V515L289 0Z" glyph-name="seven" horiz-adv-x="580" unicode="7" /><glyph d="M412 134V81L303 -188H247L360 86H224V45H175V134Z" glyph-name="seven.inf" horiz-adv-x="580" unicode="&#58744;" /><glyph d="M177 173Q177 147 187 123.5Q197 100 214 82.5Q231 65 255.5 55Q280 45 309 45Q338 45 361.5 55Q385 65 401.5 82.5Q418 100 427 123Q436 146 436 172Q436 227 401.5 263.5Q367 300 310 300Q251 300 216.5 263.5Q182 227 177 173ZM437 486Q421 506 396 520Q371 534 335 534Q297 534 264 515.5Q231 497 207 463.5Q183 430 169.5 382.5Q156 335 156 278Q156 276 157 265Q157 260 157 254Q163 273 176.5 291.5Q190 310 210 325Q230 340 256.5 349.5Q283 359 315 359Q355 359 389.5 345.5Q424 332 449 307.5Q474 283 488.5 248.5Q503 214 503 173Q503 136 490 102Q477 68 452 42Q427 16 391 1Q355 -14 309 -14Q250 -14 208.5 10Q167 34 141.5 73.5Q116 113 104.5 165Q93 217 93 273Q93 350 112.5 410Q132 470 165 511Q198 552 242 573Q286 594 335 594Q383 594 420 575Q457 556 482 527Z" glyph-name="six" horiz-adv-x="580" unicode="6" /><glyph d="M365 69Q357 79 343.5 86.5Q330 94 311 94Q291 94 274 84Q257 74 244.5 57Q232 40 224.5 17.5Q217 -5 217 -30V-37Q222 -20 244 -2.5Q266 15 303 15Q349 15 381.5 -13.5Q414 -42 414 -89Q414 -133 382.5 -164.5Q351 -196 297 -196Q262 -196 237 -182Q212 -168 196.5 -144.5Q181 -121 174 -92Q167 -63 167 -33Q167 6 178.5 38Q190 70 210 93.5Q230 117 256 129.5Q282 142 311 142Q341 142 364.5 130Q388 118 402 101ZM298 -30Q269 -30 251.5 -47.5Q234 -65 234 -90Q234 -113 251.5 -130.5Q269 -148 298 -148Q326 -148 343.5 -131Q361 -114 361 -90Q361 -65 343.5 -47.5Q326 -30 298 -30Z" glyph-name="six.inf" horiz-adv-x="580" unicode="&#58743;" /><glyph d="M129 -118 74 -91 450 677 506 649Z" glyph-name="slash" horiz-adv-x="580" unicode="/" /><glyph glyph-name="space" horiz-adv-x="580" unicode=" " /><glyph d="M445 59V139H505V0H71V59H123Q135 75 143.5 99Q152 123 152 158V282H71V341H152V405Q152 449 166.5 484Q181 519 205.5 543.5Q230 568 263.5 581Q297 594 335 594Q398 594 443 563.5Q488 533 505 490L454 461Q437 495 407 515.5Q377 536 335 536Q311 536 289 527Q267 518 250.5 501Q234 484 224 459Q214 434 214 401V341H377V282H214V152Q213 120 206 96.5Q199 73 188 59Z" glyph-name="sterling" horiz-adv-x="580" unicode="&#163;" /><glyph d="M85 580H480V427H418V521H157L318 290L157 59H429V153H490V0H85V66L242 290L85 514Z" glyph-name="summation" horiz-adv-x="580" unicode="&#8721;" /><glyph d="M232 161Q232 131 241.5 108.5Q251 86 267 72Q283 58 304.5 51Q326 44 349 44Q394 44 427 64Q460 84 482 106L523 63Q511 50 494 36.5Q477 23 455 12Q433 1 406.5 -6.5Q380 -14 349 -14Q310 -14 277.5 -3Q245 8 221 30Q197 52 183.5 83.5Q170 115 170 157V363H54V422H170V580H232V422H457V363H232Z" glyph-name="t" horiz-adv-x="580" unicode="t" /><glyph d="M170 282V363H54V422H170V580H232V422H452V363H232V282H452V223H232V161Q232 131 241.5 108.5Q251 86 267 72Q283 58 304.5 51Q326 44 349 44Q394 44 427 64Q460 84 482 106L523 63Q511 50 494 36.5Q477 23 455 12Q433 1 406.5 -6.5Q380 -14 349 -14Q310 -14 277.5 -3Q245 8 221 30Q197 52 183.5 83.5Q170 115 170 157V223H54V282Z" glyph-name="tbar" horiz-adv-x="580" unicode="&#359;" /><glyph d="M465 649 376 477 324 497 386 680ZM232 161Q232 131 241.5 108.5Q251 86 267 72Q283 58 304.5 51Q326 44 349 44Q394 44 427 64Q460 84 482 106L523 63Q511 50 494 36.5Q477 23 455 12Q433 1 406.5 -6.5Q380 -14 349 -14Q310 -14 277.5 -3Q245 8 221 30Q197 52 183.5 83.5Q170 115 170 157V363H54V422H170V580H232V422H457V363H232Z" glyph-name="tcaron" horiz-adv-x="580" unicode="&#357;" /><glyph d="M368 -61 306 -227H249L281 -61ZM232 161Q232 131 241.5 108.5Q251 86 267 72Q283 58 304.5 51Q326 44 349 44Q394 44 427 64Q460 84 482 106L523 63Q511 50 494 36.5Q477 23 455 12Q433 1 406.5 -6.5Q380 -14 349 -14Q310 -14 277.5 -3Q245 8 221 30Q197 52 183.5 83.5Q170 115 170 157V363H54V422H170V580H232V422H457V363H232Z" glyph-name="tcommaaccent" horiz-adv-x="580" unicode="&#355;" /><glyph d="M34 616H162V352Q181 385 223 410.5Q265 436 323 436Q368 436 407 419Q446 402 474 372Q502 342 518 301Q534 260 534 211Q534 162 518 121Q502 80 474 50Q446 20 407 3Q368 -14 323 -14Q265 -14 223 11Q181 36 162 69V-129H270V-188H34V-129H100V557H34ZM469 211Q469 246 458 276.5Q447 307 427 329.5Q407 352 379.5 365Q352 378 319 378Q285 378 256.5 366Q228 354 207 333Q186 312 174 283Q162 254 162 221V200Q162 167 174 138.5Q186 110 207 89Q228 68 256.5 56Q285 44 319 44Q352 44 379.5 56.5Q407 69 427 91.5Q447 114 458 144.5Q469 175 469 211Z" glyph-name="thorn" horiz-adv-x="580" unicode="&#254;" /><glyph d="M181 336 377 521H115V580H447V510L265 342L266 341Q271 343 279.5 345Q288 347 300 347Q338 347 370.5 334Q403 321 427 298Q451 275 465 243Q479 211 479 173Q479 137 465 103Q451 69 425.5 43Q400 17 363 1.5Q326 -14 279 -14Q219 -14 170 11.5Q121 37 89 82L137 122Q163 87 198.5 66.5Q234 46 278 46Q312 46 337.5 57.5Q363 69 379.5 87.5Q396 106 404 128.5Q412 151 412 173Q412 226 378 259.5Q344 293 290 293Q254 293 222 280Z" glyph-name="three" horiz-adv-x="580" unicode="3" /><glyph d="M288 -147Q317 -147 334.5 -130Q352 -113 352 -89Q352 -66 334.5 -49.5Q317 -33 290 -33Q272 -33 256 -41L227 1L329 86H190V134H386V81L291 4L292 3Q300 5 306 5Q326 5 344 -2Q362 -9 376 -21.5Q390 -34 398 -51.5Q406 -69 406 -89Q406 -110 397.5 -129.5Q389 -149 374 -163.5Q359 -178 337 -187Q315 -196 288 -196Q251 -196 221 -180Q191 -164 174 -139L213 -107Q227 -125 246 -136Q265 -147 288 -147Z" glyph-name="three.inf" horiz-adv-x="580" unicode="&#58740;" /><glyph d="M72 -22 32 12 511 602 551 568ZM440 274H498V116H532V76H498V42H532V0H408V42H455V76H325V120ZM139 385Q162 385 177 399Q192 413 192 433Q192 453 177.5 466Q163 479 142 479Q124 479 112 473L86 510L173 579H56V622H223V575L144 513L145 512Q147 513 150 513Q153 513 155 513Q188 513 214 490.5Q240 468 240 433Q240 397 213 369.5Q186 342 139 342Q107 342 81.5 355.5Q56 369 41 390L76 417Q87 403 103 394Q119 385 139 385ZM455 116V227L371 116Z" glyph-name="threequarters" horiz-adv-x="580" unicode="&#190;" /><glyph d="M288 341Q317 341 334.5 358Q352 375 352 399Q352 422 334.5 438.5Q317 455 290 455Q272 455 256 447L227 489L329 574H190V622H386V569L291 492L292 491Q300 493 306 493Q326 493 344 486Q362 479 376 466.5Q390 454 398 436.5Q406 419 406 399Q406 378 397.5 358.5Q389 339 374 324.5Q359 310 337 301Q315 292 288 292Q251 292 221 308Q191 324 174 349L213 381Q227 363 246 352Q265 341 288 341Z" glyph-name="threesuperior" horiz-adv-x="580" unicode="&#179;" /><glyph d="M439 572Q438 560 431 546Q424 532 412.5 520Q401 508 385 500.5Q369 493 349 493Q328 493 312.5 500Q297 507 284 516Q271 525 259.5 532Q248 539 235 539Q216 539 205.5 526.5Q195 514 193 499L141 516Q142 528 148.5 542Q155 556 166.5 568Q178 580 194 587.5Q210 595 230 595Q252 595 267.5 588Q283 581 296 572Q309 563 320.5 556Q332 549 345 549Q364 549 374 561.5Q384 574 387 589Z" glyph-name="tilde" horiz-adv-x="580" unicode="&#732;" /><glyph d="M260 489H221V541H165V340H223V300H64V340H122V541H67V489H27V580H260ZM361 580 421 435 481 580H553V541H530V341H553V301H453V341H490V511L439 392H402L351 511V341H387V301H288V341H311V541H288V580Z" glyph-name="trademark" horiz-adv-x="580" unicode="&#8482;" /><glyph d="M91 446Q120 512 169.5 553Q219 594 292 594Q334 594 368.5 579.5Q403 565 427 541.5Q451 518 464 487Q477 456 477 423Q477 369 443.5 323.5Q410 278 350 224L168 59H418V158H479V0H90V70L308 268Q350 306 379.5 344.5Q409 383 409 423Q409 441 402 461Q395 481 380.5 497Q366 513 344 523.5Q322 534 292 534Q238 534 205 500.5Q172 467 150 420Z" glyph-name="two" horiz-adv-x="580" unicode="2" /><glyph d="M172 -132 297 -29Q320 -10 335 8Q350 26 350 46Q350 63 335.5 78Q321 93 293 93Q264 93 247.5 76Q231 59 219 39L173 61Q190 97 219 119.5Q248 142 293 142Q344 142 374.5 113Q405 84 405 46Q405 17 387.5 -7Q370 -31 337 -59L238 -141H360V-95H407V-188H172Z" glyph-name="two.inf" horiz-adv-x="580" unicode="&#58739;" /><glyph d="M172 356 297 459Q320 478 335 496Q350 514 350 534Q350 551 335.5 566Q321 581 293 581Q264 581 247.5 564Q231 547 219 527L173 549Q190 585 219 607.5Q248 630 293 630Q344 630 374.5 601Q405 572 405 534Q405 505 387.5 481Q370 457 337 429L238 347H360V393H407V300H172Z" glyph-name="twosuperior" horiz-adv-x="580" unicode="&#178;" /><glyph d="M536 59V0H412V62Q391 27 351 6.5Q311 -14 260 -14Q192 -14 150.5 25.5Q109 65 109 140V364H36V422H171V156Q171 96 199.5 70.5Q228 45 268 45Q294 45 319.5 54.5Q345 64 365.5 82Q386 100 399 124.5Q412 149 412 179V364H331V422H474V59Z" glyph-name="u" horiz-adv-x="580" unicode="u" /><glyph d="M402 608 231 489 197 532 351 674ZM536 59V0H412V62Q391 27 351 6.5Q311 -14 260 -14Q192 -14 150.5 25.5Q109 65 109 140V364H36V422H171V156Q171 96 199.5 70.5Q228 45 268 45Q294 45 319.5 54.5Q345 64 365.5 82Q386 100 399 124.5Q412 149 412 179V364H331V422H474V59Z" glyph-name="uacute" horiz-adv-x="580" unicode="&#250;" /><glyph d="M283 502Q228 502 192 535Q156 568 153 621L211 626Q213 597 232 576Q251 555 283 555Q314 555 333 576Q352 597 355 626L412 621Q409 568 373 535Q337 502 283 502ZM536 59V0H412V62Q391 27 351 6.5Q311 -14 260 -14Q192 -14 150.5 25.5Q109 65 109 140V364H36V422H171V156Q171 96 199.5 70.5Q228 45 268 45Q294 45 319.5 54.5Q345 64 365.5 82Q386 100 399 124.5Q412 149 412 179V364H331V422H474V59Z" glyph-name="ubreve" horiz-adv-x="580" unicode="&#365;" /><glyph d="M283 659 412 537 373 493 283 579 193 493 154 537ZM536 59V0H412V62Q391 27 351 6.5Q311 -14 260 -14Q192 -14 150.5 25.5Q109 65 109 140V364H36V422H171V156Q171 96 199.5 70.5Q228 45 268 45Q294 45 319.5 54.5Q345 64 365.5 82Q386 100 399 124.5Q412 149 412 179V364H331V422H474V59Z" glyph-name="ucircumflex" horiz-adv-x="580" unicode="&#251;" /><glyph d="M239 569Q239 544 222 528Q205 512 182 512Q158 512 141.5 528Q125 544 125 569Q125 594 141.5 610Q158 626 182 626Q205 626 222 610Q239 594 239 569ZM437 569Q437 544 420 528Q403 512 379 512Q356 512 339 528Q322 544 322 569Q322 594 339 610Q356 626 379 626Q403 626 420 610Q437 594 437 569ZM536 59V0H412V62Q391 27 351 6.5Q311 -14 260 -14Q192 -14 150.5 25.5Q109 65 109 140V364H36V422H171V156Q171 96 199.5 70.5Q228 45 268 45Q294 45 319.5 54.5Q345 64 365.5 82Q386 100 399 124.5Q412 149 412 179V364H331V422H474V59Z" glyph-name="udieresis" horiz-adv-x="580" unicode="&#252;" /><glyph d="M212 674 366 533 332 489 161 608ZM536 59V0H412V62Q391 27 351 6.5Q311 -14 260 -14Q192 -14 150.5 25.5Q109 65 109 140V364H36V422H171V156Q171 96 199.5 70.5Q228 45 268 45Q294 45 319.5 54.5Q345 64 365.5 82Q386 100 399 124.5Q412 149 412 179V364H331V422H474V59Z" glyph-name="ugrave" horiz-adv-x="580" unicode="&#249;" /><glyph d="M318 612 150 490 117 531 267 675ZM504 612 336 490 303 531 453 675ZM536 59V0H412V62Q391 27 351 6.5Q311 -14 260 -14Q192 -14 150.5 25.5Q109 65 109 140V364H36V422H171V156Q171 96 199.5 70.5Q228 45 268 45Q294 45 319.5 54.5Q345 64 365.5 82Q386 100 399 124.5Q412 149 412 179V364H331V422H474V59Z" glyph-name="uhungarumlaut" horiz-adv-x="580" unicode="&#369;" /><glyph d="M159 570H405V511H159ZM536 59V0H412V62Q391 27 351 6.5Q311 -14 260 -14Q192 -14 150.5 25.5Q109 65 109 140V364H36V422H171V156Q171 96 199.5 70.5Q228 45 268 45Q294 45 319.5 54.5Q345 64 365.5 82Q386 100 399 124.5Q412 149 412 179V364H331V422H474V59Z" glyph-name="umacron" horiz-adv-x="580" unicode="&#363;" /><glyph d="M485 -65V-124H95V-65Z" glyph-name="underscore" horiz-adv-x="580" unicode="_" /><glyph d="M441 235H139V305H441Z" glyph-name="uni00AD" horiz-adv-x="580" unicode="&#173;" /><glyph d="M230 497 292 663H350L318 497Z" glyph-name="uni0312" horiz-adv-x="580" unicode="&#786;" /><glyph d="M329 670V571Q404 564 446.5 527.5Q489 491 489 426Q489 376 464 345Q439 314 401 300Q455 287 489 251.5Q523 216 523 162Q523 89 471.5 50.5Q420 12 329 7V-96H273V7H49V66H123V514H49V573H273V670ZM458 164Q458 209 425 234.5Q392 260 329 266V67Q458 76 458 164ZM186 66H273V268H186ZM186 325H273V514H186ZM424 422Q424 498 329 511V328Q424 342 424 422Z" glyph-name="uni0E3F" horiz-adv-x="580" unicode="&#3647;" /><glyph d="M419 461Q419 385 384.5 338.5Q350 292 290 292Q230 292 195.5 338.5Q161 385 161 461Q161 537 195.5 583.5Q230 630 290 630Q350 630 384.5 583.5Q419 537 419 461ZM215 461Q215 433 221 410L343 551Q334 565 320.5 573Q307 581 290 581Q252 581 233.5 546Q215 511 215 461ZM365 461Q365 484 360 506L239 368Q258 341 290 341Q328 341 346.5 376Q365 411 365 461Z" glyph-name="uni2070" horiz-adv-x="580" unicode="&#8304;" /><glyph d="M306 622H370V435H407V390H370V347H407V300H265V347H320V390H169V441ZM320 435V566L220 435Z" glyph-name="uni2074" horiz-adv-x="580" unicode="&#8308;" /><glyph d="M297 457Q285 457 273 453Q261 449 252 441H197L206 622H392V574H252L248 487Q259 495 273 499.5Q287 504 304 504Q325 504 344 496.5Q363 489 378 475.5Q393 462 401.5 443Q410 424 410 401Q410 380 402 360Q394 340 378.5 325Q363 310 340.5 301Q318 292 290 292Q253 292 223.5 307.5Q194 323 177 347L216 379Q230 362 248.5 351.5Q267 341 290 341Q320 341 337.5 359Q355 377 355 401Q355 425 339 441Q323 457 297 457Z" glyph-name="uni2075" horiz-adv-x="580" unicode="&#8309;" /><glyph d="M365 557Q357 567 343.5 574.5Q330 582 311 582Q291 582 274 572Q257 562 244.5 545Q232 528 224.5 505.5Q217 483 217 458V451Q222 468 244 485.5Q266 503 303 503Q349 503 381.5 474.5Q414 446 414 399Q414 355 382.5 323.5Q351 292 297 292Q262 292 237 306Q212 320 196.5 343.5Q181 367 174 396Q167 425 167 455Q167 494 178.5 526Q190 558 210 581.5Q230 605 256 617.5Q282 630 311 630Q341 630 364.5 618Q388 606 402 589ZM298 458Q269 458 251.5 440.5Q234 423 234 398Q234 375 251.5 357.5Q269 340 298 340Q326 340 343.5 357Q361 374 361 398Q361 423 343.5 440.5Q326 458 298 458Z" glyph-name="uni2076" horiz-adv-x="580" unicode="&#8310;" /><glyph d="M412 622V569L303 300H247L360 574H224V533H175V622Z" glyph-name="uni2077" horiz-adv-x="580" unicode="&#8311;" /><glyph d="M290 630Q343 630 372.5 603Q402 576 402 539Q402 489 351 467Q380 456 395.5 435.5Q411 415 411 387Q411 349 379 320.5Q347 292 290 292Q233 292 201 320.5Q169 349 169 387Q169 415 184.5 435.5Q200 456 229 467Q178 489 178 539Q178 576 207.5 603Q237 630 290 630ZM357 391Q357 413 339 428Q321 443 290 443Q259 443 241 428Q223 413 223 391Q223 369 240.5 354.5Q258 340 290 340Q322 340 339.5 354.5Q357 369 357 391ZM290 582Q263 582 247.5 569Q232 556 232 536Q232 517 247.5 504Q263 491 290 491Q317 491 332.5 504Q348 517 348 536Q348 556 332.5 569Q317 582 290 582Z" glyph-name="uni2078" horiz-adv-x="580" unicode="&#8312;" /><glyph d="M215 365Q223 355 236.5 347.5Q250 340 269 340Q289 340 306 350Q323 360 335.5 377Q348 394 355.5 416.5Q363 439 363 464V471Q358 454 336 436.5Q314 419 277 419Q231 419 198.5 447.5Q166 476 166 523Q166 567 197.5 598.5Q229 630 283 630Q318 630 343 616Q368 602 383.5 578.5Q399 555 406 526Q413 497 413 467Q413 428 401.5 396Q390 364 370 340.5Q350 317 324 304.5Q298 292 269 292Q239 292 215.5 304Q192 316 178 333ZM282 464Q311 464 328.5 481.5Q346 499 346 524Q346 547 328.5 564.5Q311 582 282 582Q254 582 236.5 565Q219 548 219 524Q219 499 236.5 481.5Q254 464 282 464Z" glyph-name="uni2079" horiz-adv-x="580" unicode="&#8313;" /><glyph d="M419 161Q419 85 384.5 38.5Q350 -8 290 -8Q230 -8 195.5 38.5Q161 85 161 161Q161 237 195.5 283.5Q230 330 290 330Q350 330 384.5 283.5Q419 237 419 161ZM215 161Q215 133 221 110L343 251Q334 265 320.5 273Q307 281 290 281Q252 281 233.5 246Q215 211 215 161ZM365 161Q365 184 360 206L239 68Q258 41 290 41Q328 41 346.5 76Q365 111 365 161Z" glyph-name="uni2080" horiz-adv-x="580" unicode="&#8320;" /><glyph d="M415 49V0H167V49H270V259L207 207L177 246L267 322H322V49Z" glyph-name="uni2081" horiz-adv-x="580" unicode="&#8321;" /><glyph d="M172 56 297 159Q320 178 335 196Q350 214 350 234Q350 251 335.5 266Q321 281 293 281Q264 281 247.5 264Q231 247 219 227L173 249Q190 285 219 307.5Q248 330 293 330Q344 330 374.5 301Q405 272 405 234Q405 205 387.5 181Q370 157 337 129L238 47H360V93H407V0H172Z" glyph-name="uni2082" horiz-adv-x="580" unicode="&#8322;" /><glyph d="M288 41Q317 41 334.5 58Q352 75 352 99Q352 122 334.5 138.5Q317 155 290 155Q272 155 256 147L227 189L329 274H190V322H386V269L291 192L292 191Q300 193 306 193Q326 193 344 186Q362 179 376 166.5Q390 154 398 136.5Q406 119 406 99Q406 78 397.5 58.5Q389 39 374 24.5Q359 10 337 1Q315 -8 288 -8Q251 -8 221 8Q191 24 174 49L213 81Q227 63 246 52Q265 41 288 41Z" glyph-name="uni2083" horiz-adv-x="580" unicode="&#8323;" /><glyph d="M306 322H370V135H407V90H370V47H407V0H265V47H320V90H169V141ZM320 135V266L220 135Z" glyph-name="uni2084" horiz-adv-x="580" unicode="&#8324;" /><glyph d="M297 157Q285 157 273 153Q261 149 252 141H197L206 322H392V274H252L248 187Q259 195 273 199.5Q287 204 304 204Q325 204 344 196.5Q363 189 378 175.5Q393 162 401.5 143Q410 124 410 101Q410 80 402 60Q394 40 378.5 25Q363 10 340.5 1Q318 -8 290 -8Q253 -8 223.5 7.5Q194 23 177 47L216 79Q230 62 248.5 51.5Q267 41 290 41Q320 41 337.5 59Q355 77 355 101Q355 125 339 141Q323 157 297 157Z" glyph-name="uni2085" horiz-adv-x="580" unicode="&#8325;" /><glyph d="M365 257Q357 267 343.5 274.5Q330 282 311 282Q291 282 274 272Q257 262 244.5 245Q232 228 224.5 205.5Q217 183 217 158V151Q222 168 244 185.5Q266 203 303 203Q349 203 381.5 174.5Q414 146 414 99Q414 55 382.5 23.5Q351 -8 297 -8Q262 -8 237 6Q212 20 196.5 43.5Q181 67 174 96Q167 125 167 155Q167 194 178.5 226Q190 258 210 281.5Q230 305 256 317.5Q282 330 311 330Q341 330 364.5 318Q388 306 402 289ZM298 158Q269 158 251.5 140.5Q234 123 234 98Q234 75 251.5 57.5Q269 40 298 40Q326 40 343.5 57Q361 74 361 98Q361 123 343.5 140.5Q326 158 298 158Z" glyph-name="uni2086" horiz-adv-x="580" unicode="&#8326;" /><glyph d="M412 322V269L303 0H247L360 274H224V233H175V322Z" glyph-name="uni2087" horiz-adv-x="580" unicode="&#8327;" /><glyph d="M290 330Q343 330 372.5 303Q402 276 402 239Q402 189 351 167Q380 156 395.5 135.5Q411 115 411 87Q411 49 379 20.5Q347 -8 290 -8Q233 -8 201 20.5Q169 49 169 87Q169 115 184.5 135.5Q200 156 229 167Q178 189 178 239Q178 276 207.5 303Q237 330 290 330ZM357 91Q357 113 339 128Q321 143 290 143Q259 143 241 128Q223 113 223 91Q223 69 240.5 54.5Q258 40 290 40Q322 40 339.5 54.5Q357 69 357 91ZM290 282Q263 282 247.5 269Q232 256 232 236Q232 217 247.5 204Q263 191 290 191Q317 191 332.5 204Q348 217 348 236Q348 256 332.5 269Q317 282 290 282Z" glyph-name="uni2088" horiz-adv-x="580" unicode="&#8328;" /><glyph d="M215 65Q223 55 236.5 47.5Q250 40 269 40Q289 40 306 50Q323 60 335.5 77Q348 94 355.5 116.5Q363 139 363 164V171Q358 154 336 136.5Q314 119 277 119Q231 119 198.5 147.5Q166 176 166 223Q166 267 197.5 298.5Q229 330 283 330Q318 330 343 316Q368 302 383.5 278.5Q399 255 406 226Q413 197 413 167Q413 128 401.5 96Q390 64 370 40.5Q350 17 324 4.5Q298 -8 269 -8Q239 -8 215.5 4Q192 16 178 33ZM282 164Q311 164 328.5 181.5Q346 199 346 224Q346 247 328.5 264.5Q311 282 282 282Q254 282 236.5 265Q219 248 219 224Q219 199 236.5 181.5Q254 164 282 164Z" glyph-name="uni2089" horiz-adv-x="580" unicode="&#8329;" /><glyph d="M412 62Q391 27 351 6.5Q311 -14 260 -14Q192 -14 150.5 25.5Q109 65 109 140V364H36V422H171V156Q171 96 199.5 70.5Q228 45 268 45Q294 45 319.5 54.5Q345 64 365.5 82Q386 100 399 124.5Q412 149 412 179V364H331V422H474V59H536V0H496Q443 -29 413 -58.5Q383 -88 383 -116Q383 -131 392 -142Q401 -153 421 -153Q440 -153 459 -142.5Q478 -132 496 -115L526 -152Q503 -175 475.5 -190.5Q448 -206 413 -206Q371 -206 347.5 -182.5Q324 -159 324 -123Q324 -88 345.5 -58.5Q367 -29 412 0Z" glyph-name="uogonek" horiz-adv-x="580" unicode="&#371;" /><glyph d="M384 584Q384 542 354.5 512.5Q325 483 282 483Q261 483 242.5 491Q224 499 210.5 512.5Q197 526 189 544.5Q181 563 181 584Q181 627 210.5 656Q240 685 282 685Q325 685 354.5 656Q384 627 384 584ZM331 584Q331 605 318 620Q305 635 282 635Q260 635 247 620Q234 605 234 584Q234 563 247 548Q260 533 282 533Q305 533 318 548Q331 563 331 584ZM536 59V0H412V62Q391 27 351 6.5Q311 -14 260 -14Q192 -14 150.5 25.5Q109 65 109 140V364H36V422H171V156Q171 96 199.5 70.5Q228 45 268 45Q294 45 319.5 54.5Q345 64 365.5 82Q386 100 399 124.5Q412 149 412 179V364H331V422H474V59Z" glyph-name="uring" horiz-adv-x="580" unicode="&#367;" /><glyph d="M430 572Q429 560 422.5 546Q416 532 404.5 520Q393 508 377 500.5Q361 493 341 493Q320 493 304 500Q288 507 275.5 516Q263 525 251.5 532Q240 539 226 539Q208 539 197.5 526.5Q187 514 184 499L132 516Q133 528 140 542Q147 556 158.5 568Q170 580 186 587.5Q202 595 222 595Q243 595 259 588Q275 581 287.5 572Q300 563 312 556Q324 549 337 549Q355 549 365.5 561.5Q376 574 379 589ZM536 59V0H412V62Q391 27 351 6.5Q311 -14 260 -14Q192 -14 150.5 25.5Q109 65 109 140V364H36V422H171V156Q171 96 199.5 70.5Q228 45 268 45Q294 45 319.5 54.5Q345 64 365.5 82Q386 100 399 124.5Q412 149 412 179V364H331V422H474V59Z" glyph-name="utilde" horiz-adv-x="580" unicode="&#361;" /><glyph d="M254 0 84 363H27V422H226V363H153L290 64L428 363H354V422H553V363H496L326 0Z" glyph-name="v" horiz-adv-x="580" unicode="v" /><glyph d="M370 0 290 232 210 0H135L61 363H18V422H195V363H122L179 73L261 307H322L402 73L460 363H385V422H562V363H519L445 0Z" glyph-name="w" horiz-adv-x="580" unicode="w" /><glyph d="M413 608 242 489 208 532 362 674ZM370 0 290 232 210 0H135L61 363H18V422H195V363H122L179 73L261 307H322L402 73L460 363H385V422H562V363H519L445 0Z" glyph-name="wacute" horiz-adv-x="580" unicode="&#7811;" /><glyph d="M290 659 419 537 380 493 290 579 200 493 161 537ZM370 0 290 232 210 0H135L61 363H18V422H195V363H122L179 73L261 307H322L402 73L460 363H385V422H562V363H519L445 0Z" glyph-name="wcircumflex" horiz-adv-x="580" unicode="&#373;" /><glyph d="M248 569Q248 544 231.5 528Q215 512 191 512Q168 512 151 528Q134 544 134 569Q134 594 151 610Q168 626 191 626Q215 626 231.5 610Q248 594 248 569ZM446 569Q446 544 429 528Q412 512 389 512Q365 512 348.5 528Q332 544 332 569Q332 594 348.5 610Q365 626 389 626Q412 626 429 610Q446 594 446 569ZM370 0 290 232 210 0H135L61 363H18V422H195V363H122L179 73L261 307H322L402 73L460 363H385V422H562V363H519L445 0Z" glyph-name="wdieresis" horiz-adv-x="580" unicode="&#7813;" /><glyph d="M217 674 371 533 337 489 166 608ZM370 0 290 232 210 0H135L61 363H18V422H195V363H122L179 73L261 307H322L402 73L460 363H385V422H562V363H519L445 0Z" glyph-name="wgrave" horiz-adv-x="580" unicode="&#7809;" /><glyph d="M532 422V363H484L329 217L495 59H543V0H349V59H412L288 181L164 59H228V0H37V59H85L249 215L93 363H46V422H237V363H176L291 251L406 363H345V422Z" glyph-name="x" horiz-adv-x="580" unicode="x" /><glyph d="M82 -188V-130H201L258 -7L84 363H29V422H227V363H153L291 63L429 363H354V422H552V363H496L266 -130H339V-188Z" glyph-name="y" horiz-adv-x="580" unicode="y" /><glyph d="M423 608 252 489 218 532 372 674ZM82 -188V-130H201L258 -7L84 363H29V422H227V363H153L291 63L429 363H354V422H552V363H496L266 -130H339V-188Z" glyph-name="yacute" horiz-adv-x="580" unicode="&#253;" /><glyph d="M292 659 421 537 382 493 292 579 202 493 163 537ZM82 -188V-130H201L258 -7L84 363H29V422H227V363H153L291 63L429 363H354V422H552V363H496L266 -130H339V-188Z" glyph-name="ycircumflex" horiz-adv-x="580" unicode="&#375;" /><glyph d="M251 569Q251 544 234 528Q217 512 194 512Q170 512 153 528Q136 544 136 569Q136 594 153 610Q170 626 194 626Q217 626 234 610Q251 594 251 569ZM448 569Q448 544 431.5 528Q415 512 391 512Q368 512 351 528Q334 544 334 569Q334 594 351 610Q368 626 391 626Q415 626 431.5 610Q448 594 448 569ZM82 -188V-130H201L258 -7L84 363H29V422H227V363H153L291 63L429 363H354V422H552V363H496L266 -130H339V-188Z" glyph-name="ydieresis" horiz-adv-x="580" unicode="&#255;" /><glyph d="M259 213V243L238 274H79V325H204L75 521H21V580H222V521H151L291 305L431 521H358V580H560V521H505L376 325H501V274H341L322 243V213H501V162H322V59H444V0H137V59H259V162H79V213Z" glyph-name="yen" horiz-adv-x="580" unicode="&#165;" /><glyph d="M105 422H474V357L173 59H425V138H485V0H95V64L394 363H165V288H105Z" glyph-name="z" horiz-adv-x="580" unicode="z" /><glyph d="M420 608 249 489 215 532 369 674ZM105 422H474V357L173 59H425V138H485V0H95V64L394 363H165V288H105Z" glyph-name="zacute" horiz-adv-x="580" unicode="&#378;" /><glyph d="M167 616 206 659 296 573 385 659 424 616 296 493ZM105 422H474V357L173 59H425V138H485V0H95V64L394 363H165V288H105Z" glyph-name="zcaron" horiz-adv-x="580" unicode="&#382;" /><glyph d="M361 569Q361 542 343.5 524.5Q326 507 300 507Q274 507 256 524.5Q238 542 238 569Q238 596 256 613.5Q274 631 300 631Q326 631 343.5 613.5Q361 596 361 569ZM105 422H474V357L173 59H425V138H485V0H95V64L394 363H165V288H105Z" glyph-name="zdotaccent" horiz-adv-x="580" unicode="&#380;" /><glyph d="M71 290Q71 358 87 414Q103 470 131.5 510Q160 550 200.5 572Q241 594 290 594Q339 594 379.5 572Q420 550 448.5 510Q477 470 493 414Q509 358 509 290Q509 222 493 166Q477 110 448.5 70Q420 30 379.5 8Q339 -14 290 -14Q241 -14 200.5 8Q160 30 131.5 70Q103 110 87 166Q71 222 71 290ZM139 290Q139 255 144 223.5Q149 192 158 165L401 463Q382 495 354.5 514Q327 533 290 533Q253 533 224.5 514Q196 495 177 462Q158 429 148.5 384.5Q139 340 139 290ZM441 290Q441 321 437 349.5Q433 378 425 403L184 108Q203 79 229 63Q255 47 290 47Q327 47 355.5 66Q384 85 403 118Q422 151 431.5 195.5Q441 240 441 290Z" glyph-name="zero" horiz-adv-x="580" unicode="0" /><glyph d="M419 -27Q419 -103 384.5 -149.5Q350 -196 290 -196Q230 -196 195.5 -149.5Q161 -103 161 -27Q161 49 195.5 95.5Q230 142 290 142Q350 142 384.5 95.5Q419 49 419 -27ZM215 -27Q215 -56 221 -78L343 63Q334 77 320.5 85Q307 93 290 93Q252 93 233.5 58Q215 23 215 -27ZM365 -27Q365 -4 360 18L239 -120Q258 -147 290 -147Q328 -147 346.5 -112Q365 -77 365 -27Z" glyph-name="zero.inf" horiz-adv-x="580" unicode="&#58737;" /><glyph d="M71 290Q71 358 87 414Q103 470 131.5 510Q160 550 200.5 572Q241 594 290 594Q339 594 379.5 572Q420 550 448.5 510Q477 470 493 414Q509 358 509 290Q509 222 493 166Q477 110 448.5 70Q420 30 379.5 8Q339 -14 290 -14Q241 -14 200.5 8Q160 30 131.5 70Q103 110 87 166Q71 222 71 290ZM441 290Q441 340 431.5 384.5Q422 429 403 462Q384 495 355.5 514Q327 533 290 533Q253 533 224.5 514Q196 495 177 462Q158 429 148.5 384.5Q139 340 139 290Q139 240 148.5 195.5Q158 151 177 118Q196 85 224.5 66Q253 47 290 47Q327 47 355.5 66Q384 85 403 118Q422 151 431.5 195.5Q441 240 441 290Z" glyph-name="zero.noslash" horiz-adv-x="580" /></font>
</defs>
</svg>
